Малые музеи Петербурга (4 фильма) [2014, Документальный, исторический, HDTVRip]


Статистика раздачи [Обновить пиров]
Размер:  628 MB   |    Зарегистрирован:  1 год 1 месяц   |    Скачан:  0 раз

Полного источника не было: Никогда

 
   
 
 
 

[Цитировать]

Малые музеи Петербурга
Год выпуска: 2014
Страна: Россия
Жанр: Документальный, исторический
Продолжительность: 4x ~ 00:11:00
Перевод: Не требуется
Описание:

Микроминиатюра

Описание: В этой серии - музей микроминиатюры "Русский Левша", в котором представлены работы российских мастеров этого направления искусства. Первый в России интерактивный музей микроминиатюры "Русский Левша" открыт в 2006 году Международной Гильдией Мастеров в Санкт-Петербурге. Коллекция уникальна тем, что все экспонаты меньше миллиметра. Рассмотреть микрообъекты можно исключительно с помощью увеличительных устройств - микроскопов, вмонтированных в выставочные формы. Коллекция произведений выполнена, в буквальном смысле, из пыли золота, серебра, платины и обычной бытовой, серой - под большим увеличением радужно-цветной.
Видео: Xvid, MPEG-4 Visual, 720 x 400 (1.800), 1 535 Kbps, 25.000 fps
Аудио: Mp3, 2 ch, 128 Kbps, 48.0 KHz

Искусство веера

Описание: Недавно открывшийся в Петербурге музей "Искусство веера" расположился в здании особняка начала XX века. Интерьер и внутренняя обстановка соответствуют тематике музея – здесь есть старинные дворцовые люстры и несколько каминов, стены затянуты дорогими тканями, двери выполнены из дерева драгоценных пород и украшены бронзовыми вставками. Экспонаты находятся в шкафах, инкрустированных деревом, фарфором и бронзой, а сама экспозиция напоминает музей дворянского быта – столько здесь предметов роскоши давно минувших дней.....
Видео: Xvid, MPEG-4 Visual, 720 x 400 (1.800), 1 649 Kbps, 25.000 fps
Аудио: AC-3, 2 ch, 192 Kbps, 48.0 KHz

История трамвая

Описание: Музей электротранспорта в Петербурге создан в 2008 году. До этого времени подобные музеи уже существовали в трамвайных и троллейбусных парках, но не имели самостоятельного статуса. Музей состоит из 3 частей: экспозиции, связанные с историей работы парков, а также троллейбусного и трамвайного движения в городе; ретроподвижной музейный состав; помещения музейного хранения со всевозможной документацией и материалами. Музейные экспозиции размещены на втором этаже городского депо № 2.
Видео: Xvid, MPEG-4 Visual, 720 x 400 (1.800), 1 651 Kbps, 25.000 fps
Аудио: AC-3, 2 ch, 192 Kbps, 48.0 KHz

Игровые автоматы

Описание: Музей советских игровых автоматов открыт недавно – с лета 2013 года. В нем собрано более 50 игровых автоматов советской эпохи: «Морской бой», «Репка», «Магистраль», «Снайпер» и т.д. Экспонаты, которые собирали по заброшенным пионерлагерям, дворцами культуры и паркам отдыха и тщательно восстанавливали, находятся в рабочем состоянии. В них даже можно поиграть: на входе всем выдаются советские монетки, которые гости могут потратить на любые 15 игровых автоматов (или на один и тот же 15 раз подряд). В ходе экскурсии, тоже входящей в стоимость билета, гостям не только рассказывают историю каждого экспоната, но и демонстрируют его внутреннее устройство. Приятный бонус – «та самая» газировка из автоматов.
Видео: Xvid, MPEG-4 Visual, 720 x 400 (1.800), 1 650 Kbps, 25.000 fps
Аудио: AC-3, 2 ch, 192 Kbps, 48.0 KHz
качество: HDTVRip
формат: AVI

MediaInfo

Format : AVIFormat/Info : Audio Video InterleaveFile size : 157 MiBDuration : 11mn 49sOverall bit rate : 1 852 KbpsWriting application : VirtualDubMod 1.5.10.3 | www.virtualdub-fr.org || (build 2550/release)Writing library : VirtualDubMod build 2550/release
VideoID : 0Format : MPEG-4 VisualFormat profile : Advanced Simple@L5Format settings, BVOP : 1Format settings, QPel : NoFormat settings, GMC : No warppointsFormat settings, Matrix : CustomCodec ID : XVIDCodec ID/Hint : XviDDuration : 11mn 49sBit rate : 1 650 KbpsWidth : 720 pixelsHeight : 400 pixelsDisplay aspect ratio : 16:9Frame rate : 25.000 fpsColor space : YUVChroma subsampling : 4:2:0Bit depth : 8 bitsScan type : ProgressiveCompression mode : LossyBits/(Pixel*Frame) : 0.229Stream size : 139 MiB (89%)Writing library : XviD 1.2.1 (UTC 2008-12-04)
AudioID : 1Format : AC-3Format/Info : Audio Coding 3Mode extension : CM (complete main)Format settings, Endianness : BigCodec ID : 2000Duration : 11mn 49sBit rate mode : ConstantBit rate : 192 KbpsChannel(s) : 2 channelsChannel positions : Front: L RSampling rate : 48.0 KHzBit depth : 16 bitsCompression mode : LossyStream size : 16.2 MiB (10%)Alignment : Split accross interleavesInterleave, duration : 40 ms (1.00 video frame)Interleave, preload duration : 500 ms
Не забывай говорить "Спасибо"
Пожалуйста не уходите с раздачи!
[teatrix.ru].t9098.torrent 
Торрент: Зарегистрирован [ 2015-10-18 20:31 ] · CDE42AE39BF4CE35DAB405414AE2BD46C2CBB03A

Скачать .torrent

Скачать

13 KB

Статус: проверено
Скачан: 0 раз
Размер: 628 MB
terms.php



Быстрый ответ

Имя:

      
Для отправки сообщений необходимо включить JavaScript
Показать сообщения:    

Текущее время: 04-Дек 06:55

Часовой пояс: UTC + 3


Вы можете начинать темы
Вы можете отвечать на сообщения
Вы не можете редактировать свои сообщения
Вы не можете удалять свои сообщения
Вы не можете голосовать в опросах
Вы не можете прикреплять файлы к сообщениям
Вы можете скачивать файлы