Париж "Прекрасной эпохи" / Paris Belle Epoque (Рейналь Пеллисер / Raynal Pellicer) [2014, история искусств, DVB] Original (Fre) + Sub (rus)


Статистика раздачи [Обновить пиров]
Размер:  1.66 GB   |    Зарегистрирован:  1 год 1 месяц   |    Скачан:  1 раз

Полного источника не было: 5 месяцев 14 дней

 
   
 
 
 

[Цитировать]

Париж "Прекрасной эпохи"
Paris Belle Époque- Дата/Год выпуска: 2014
Страна: Франция
Жанр: история искусств
Продолжительность: 00:52:08
Перевод: Субтитры
Русские субтитры: есть
Формат субтитров: hardsub (неотключаемые)
Доп. информация о субтитрах: перевод Е. Маньен, Éclair Group
Оригинальная аудиодорожка: французский
Режиссер: Рейналь Пеллисер / Raynal Pellicer
Телеканал: TV5MONDEОписание: Нарядная, элегантная публика спешит на Всемирную выставку 1900 года, чтобы посмотреть на выстроенные по этому случаю павильоны, восхититься скоростным движущимся тротуаром и полюбоваться на сооруженный на Марсовом поле Дворец Электричества, увенчанный статуей Гения, символа новой энергии.
На заре новой эпохи, занимавшейся над XIX веком, предметный мир казался обветшалым. В глазах молодых художников мебель, здания, одежда, украшения были убогими канонов прошлого, выполненные бездушными подражателями. Всё нужно было заново придумать, выстроить и оформить. Всемирная выставка стала уникальным шансом для молодых, мечтавших о новом искусстве. (из предисловия к фильму)
Доп. информация: DVB-S
Сэмпл: http://multi-up.com/987875
качество: DVB
формат: MKV
Видео: MPEG Video 2, 704x576@1024x576 (16:9), 25 fps, ~4286 kbps avg, 0.423 bit/pixel
Аудио: Французский (MPEG Audio 2, 2 ch, 48 kHz, ~192.00 kbps avg)

MediaInfo

ОбщееУникальный идентификатор : 233725533361507837236100404248625911420 (0xAFD5E67D22172887B564ECCB4999967C)Полное имя : E:\My Torrents 2\[apreder]Paris_Belle_Epoque(2014)DVB.mkvФормат : MatroskaВерсия формата : Version 2Размер файла : 1,66 ГбайтПродолжительность : 52 м.Режим общего битрейта : ПеременныйОбщий поток : 4569 Кбит/секДата кодирования : UTC 2014-07-21 13:27:22Программа кодирования : mkvmerge v7.0.0 ('Where We Going') 64bit built on Jun 9 2014 15:16:27Библиотека кодирования : libebml v1.3.0 + libmatroska v1.4.1
ВидеоИдентификатор : 1Формат : MPEG VideoВерсия формата : Version 2Профиль формата : Main@MainПараметр BVOP формата : НетПараметр матрицы формата : ВыборочнаяИдентификатор кодека : V_MPEG2Идентификатор кодека/Информация : MPEG 1 or 2 VideoПродолжительность : 52 м.Вид битрейта : ПеременныйБитрейт : 4286 Кбит/секМаксимальный битрейт : 8084 Кбит/секШирина : 704 пикселяВысота : 576 пикселейСоотношение сторон : 16:9Режим частоты кадров : ПостоянныйЧастота кадров : 25,000 кадров/секСтандарт вещания : PALЦветовое пространство : YUVСубдискретизация насыщенности : 4:2:0Битовая глубина : 8 битТип развёртки : ЧересстрочнаяПорядок развёртки : Верхнее поле первоеМетод сжатия : С потерямиБит/(Пиксели*Кадры) : 0.423Временной код первого кадра : 00:00:00:00Оригинал временного кода : Group of pictures headerРазмер потока : 1,56 Гбайт (94%)Default : ДаForced : Нет
АудиоИдентификатор : 2Формат : MPEG AudioВерсия формата : Version 1Профиль формата : Layer 2Идентификатор кодека : A_MPEG/L2Идентификатор кодека/Подсказка : MP2Продолжительность : 52 м.Вид битрейта : ПостоянныйБитрейт : 192 Кбит/секКаналы : 2 каналаЧастота : 48,0 КГцМетод сжатия : С потерямиРазмер потока : 71,6 Мбайт (4%)Язык : FrenchDefault : ДаForced : Нет

Скриншоты


Резервные скриншоты


-[1'548]
[teatrix.ru].t9099.torrent 
Торрент: Зарегистрирован [ 2015-10-18 20:31 ] · FA113F86B89AA5A068EADE294FE59DC6F80ECF64

Скачать .torrent

Скачать

17 KB

Статус: проверено
Скачан: 1 раз
Размер: 1.66 GB
terms.php



Быстрый ответ

Имя:

      
Для отправки сообщений необходимо включить JavaScript
Показать сообщения:    

Текущее время: 11-Дек 14:54

Часовой пояс: UTC + 3


Вы можете начинать темы
Вы можете отвечать на сообщения
Вы не можете редактировать свои сообщения
Вы не можете удалять свои сообщения
Вы не можете голосовать в опросах
Вы не можете прикреплять файлы к сообщениям
Вы можете скачивать файлы