Святая Русь Михаила Нестерова (Галина Иванова) [2013 г., Историко-биографический, DVDRip]


Статистика раздачи [Обновить пиров]
Размер:  443 MB   |    Зарегистрирован:  1 год 1 месяц   |    Скачан:  0 раз

Полного источника не было: Никогда

 
   
 
 
 

[Цитировать]

Святая Русь Михаила Нестерова
Год выпуска: 2013
Страна: Россия
Жанр: Историко-биографический
Продолжительность: 00:25:38
Перевод: Не требуется
Русские субтитры: нет
Оригинальная аудиодорожка: русский
Режиссер: Г. Иванова
Описание: Фильм о жизни и творчестве замечательно­го русского художника, который создал свой живописный мир с особым "нестеровским" пейзажем: опоэтизированные поля, реки, ле­са, в которых живут одухотворенные люди. Все это Святая Русь Михаила Нестерова.
Сэмпл: https://www.sendspace.com/file/3q2udq
Качество: DVDRip
Формат: AVI
Видео: 2278 Кбит/сек, 720*400 (16:9), 25,000 кадров/сек, XviD
Аудио: Русский, 128 Кбит/сек, 48,0 КГц, 2 канала, MP3

MediaInfo

ОбщееПолное имя : F:\MONAR.RU\Видео\Познавательные фильмы\Святая Русь Михаила Нестерова.aviФормат : AVIФормат/Информация : Audio Video InterleaveРазмер файла : 444 МбайтПродолжительность : 25 м.Общий поток : 2420 Кбит/сек
ВидеоИдентификатор : 0Формат : MPEG-4 VisualПрофиль формата : Advanced Simple@L5Параметр BVOP формата : 2Параметр QPel формата : НетПараметр GMC формата : Без точки переходаПараметр матрицы формата : ВыборочнаяИдентификатор кодека : XVIDИдентификатор кодека/Подсказка : XviDПродолжительность : 25 м.Битрейт : 2278 Кбит/секШирина : 720 пикселейВысота : 400 пикселейСоотношение сторон : 16:9Частота кадров : 25,000 кадров/секЦветовое пространство : YUVСубдискретизация насыщенности : 4:2:0Битовая глубина : 8 битТип развёртки : ПрогрессивнаяМетод сжатия : С потерямиБит/(Пиксели*Кадры) : 0.316Размер потока : 418 Мбайт (94%)Библиотека кодирования : XviD 1.2.1 (UTC 2008-12-04)
АудиоИдентификатор : 1Формат : MPEG AudioВерсия формата : Version 1Профиль формата : Layer 3Идентификатор кодека : 55Идентификатор кодека/Подсказка : MP3Продолжительность : 25 м.Продолжительность оригинала : 25 м.Вид битрейта : ПостоянныйБитрейт : 128 Кбит/секКаналы : 2 каналаЧастота : 48,0 КГцМетод сжатия : С потерямиРазмер потока : 23,5 Мбайт (5%)Выравнивание : Разделение по промежуткамПродолжительность промежутка : 24 мс. (0,60 видеокадр)Библиотека кодирования : LAME3.98.2ЄЄЄЄЄЄЄV`

Скриншоты

[teatrix.ru].t9100.torrent 
Торрент: Зарегистрирован [ 2015-10-18 20:31 ] · F833D71617F908653692D5A4C686D711DD01CA4C

Скачать .torrent

Скачать

9 KB

Статус: проверено
Скачан: 0 раз
Размер: 443 MB
terms.php



Быстрый ответ

Имя:

      
Для отправки сообщений необходимо включить JavaScript
Показать сообщения:    

Текущее время: 10-Дек 15:42

Часовой пояс: UTC + 3


Вы можете начинать темы
Вы можете отвечать на сообщения
Вы не можете редактировать свои сообщения
Вы не можете удалять свои сообщения
Вы не можете голосовать в опросах
Вы не можете прикреплять файлы к сообщениям
Вы можете скачивать файлы