История и культура государства российского. Марк Шагал: Художник из России (Марианна Таврог) [1987, Россия, документальный, история, искусство, живопись, DVDRip]


Статистика раздачи [Обновить пиров]
Размер:  350 MB   |    Зарегистрирован:  1 год 1 месяц   |    Скачан:  0 раз

Полного источника не было: Никогда

 
   
 
 
 

[Цитировать]

История и культура государства российского. Марк Шагал: Художник из России- -Страна: Россия
Жанр: документальный, история, искусство, живопись
Год выпуска: 1987
Продолжительность: 00:29:59
Перевод: Не требуется-Режиссер: Марианна Таврог-Описание:
Фильм рассказывает о жизни и творчестве одного из удивительнейших художников ХХ-го века - Марка Шагала (1887-1985 гг). Яркий представитель авангарда, Шагал отличался удивительным образным мышлением. Его мир - это уникальный художественный сплав тысячелетних верований и традиций еврейского народа, жизни и быта маленького Витебска - окраины Российской империи начала века, и, одновременно, новой, художником создаваемой поэтики символов и образов. Герои его работ летают от счастья или ходят вверх ногами. У людей на портретах Шагала голубые, зеленые, красные лица. И эти символы, эта тайнопись искусства интересны зрителям до сих пор. Их стараются разгадать, объяснить, ими восхищаются, им подражают. Творчество художника удивительно созвучно нашему XXI веку. В фильме Вы увидите его работы - они экспонируются в лучших музеях мира. Его витражи украшают христианские и иудейские храмы в городах многих стран. Париж гордится шагаловской росписью плафона одного из лучших оперных театров города. После долгих лет забвения творчество Марка Шагала высоко оценено и в России.-Качество: DVDRip
Формат: AVI
Видео кодек: XviD
Аудио кодек: AC3-Видео: 704x528 (1.33:1), 25 fps, XviD build 50 ~1429 kbps avg, 0.15 bit/pixel
Аудио: 48 kHz, AC3 Dolby Digital, 2/0 (L,R) ch, ~192 kbps
-

MediaInfo

General
Complete name : F:\История и культура государства российского. Марк Шагал Художник из России DVDRip\История и культура государства российского. Марк Шагал Художник из России DVDRip.avi
Format : AVI
Format/Info : Audio Video Interleave
File size : 350 MiB
Duration : 29mn 59s
Overall bit rate : 1 632 Kbps
Writing application : VirtualDubMod 1.5.10.2 (build 2540/release)
Writing library : VirtualDubMod build 2540/release
Video
ID : 0
Format : MPEG-4 Visual
Format profile : Advanced Simple@L5
Format settings, BVOP : Yes
Format settings, QPel : No
Format settings, GMC : No warppoints
Format settings, Matrix : Custom
Codec ID : XVID
Codec ID/Hint : XviD
Duration : 29mn 59s
Bit rate : 1 430 Kbps
Width : 704 pixels
Height : 528 pixels
Display aspect ratio : 4:3
Frame rate : 25.000 fps
Color space : YUV
Chroma subsampling : 4:2:0
Bit depth : 8 bits
Scan type : Progressive
Bits/(Pixel*Frame) : 0.154
Stream size : 307 MiB (88%)
Writing library : XviD 1.2.1 (UTC 2008-12-04)
Audio
ID : 1
Format : AC-3
Format/Info : Audio Coding 3
Mode extension : CM (complete main)
Codec ID : 2000
Duration : 29mn 59s
Bit rate mode : Constant
Bit rate : 192 Kbps
Channel(s) : 2 channels
Channel positions : Front: L R
Sampling rate : 48.0 KHz
Bit depth : 16 bits
Stream size : 41.2 MiB (12%)
Alignment : Split accross interleaves
Interleave, duration : 40 ms (1.00 video frame)
Interleave, preload duration : 500 ms

Скриншоты


Ковры

-Раздаю до первых 5-ти скачавших, на раздачи не возвращаюсь...-
[teatrix.ru].t9101.torrent 
Торрент: Зарегистрирован [ 2015-10-18 20:31 ] · E86399D447A3F534C7E45B4D8EC66CAD6311ACCE

Скачать .torrent

Скачать

14 KB

Статус: проверено
Скачан: 0 раз
Размер: 350 MB
terms.php



Быстрый ответ

Имя:

      
Для отправки сообщений необходимо включить JavaScript
Показать сообщения:    

Текущее время: 11-Дек 01:27

Часовой пояс: UTC + 3


Вы можете начинать темы
Вы можете отвечать на сообщения
Вы не можете редактировать свои сообщения
Вы не можете удалять свои сообщения
Вы не можете голосовать в опросах
Вы не можете прикреплять файлы к сообщениям
Вы можете скачивать файлы