Путевые заметки Франсуа Бюнеля (5 выпусков) / Les Carnets de route de Francois Busnel (Адриен Солан / Adrien Soland) [2011 - 2014, культурологический, DVB] Original (Fre) + Sub (ru hard)


Статистика раздачи [Обновить пиров]
Размер:  8.01 GB   |    Зарегистрирован:  1 год 1 месяц   |    Скачан:  0 раз

Полного источника не было: Никогда

 
   
 
 
 

[Цитировать]

Путевые заметки Франсуа Бюнеля
Les Carnets de route de François Busnel- Год выпуска: 2011 - 2014
Страна: Франция
Жанр: культурологический
Продолжительность: 05:00:45 (по ~01:00:00)
Перевод: Субтитры (перевод Е. Маньен, И. Безлюдной, Éclair Group)
Русские субтитры: есть
Режиссер: Адриен Солан / Adrien Soland
Описание: Франсуа Бюнель - главный редактор журнала Lire, литературный обозреватель газеты The Express и ведущий передачи "Литературное обозрение / La grande librairie" - лучшей литературной передачи на французском телевидении. В 2012 году он стал кавалером Ордена искусств и литературы.
Литературное обозрение, Часть 2
Литературное обозрение, Часть 3
В этом цикле Франсуа Бюнель решил познакомить телезрителей с известными современными писателями, отправившись к ним в гости.
Доп. информация: TV5MONDE.
http://www.imdb.com/title/tt2451906/
Сэмпл: http://multi-up.com/841604
Качество: DVB-S
Формат: MPEG-PS
Видео кодек: MPEG2
Аудио кодек: MP2
Видео: MPEG Video 2, 720x576@1024x576 (16:9), 25 fps, ~3055 kbps avg, ~0.295 bit/pixel
Аудио: Французский (48 kHz, MPEG Audio 2, 2 ch, ~192.00 kbps avg)
Формат субтитров: hardsub (неотключаемые)

Список выпусков/ серийНовая Англия / Une Nouvelle-Angleterre (2011)

Продолжительность: 01:00:25
Перевод: Субтитры (перевод Е. Маньен, Éclair Group)
Описание: Америка создавалась здесь. Я решил отправиться в путь с Лонг-Айленда. С этого острова уходили в море китобои. В последнее столетие в Ист-Хэмптоне и Саутхемптоне стали селиться нью-йоркские богачи и знаменитости. Сколотив состояние в столице, они спешили купить себе здесь дом, чтобы придать своему положению требуемый вес и солидность. Так в свое время поступил герой Ф.С. Фитцджеральда Джей Гэтсби. Сегодня вас ожидает рассказ о писателях: Питере Маттиссене / Peter Matthiessen, Джеймсе Солтере / James Salter, Деннисе Лихэйне / Dennis Lehane, Дугласе Кеннеди / Douglas Kennedy, Ричарде Руссо / Richard Russo, Ричарде Форде / Richard Ford, Джоне Ирвинге / John Irving, Расселе Бэнксе / Russell Banks, Филипе Роте / Philip Roth.

Скриншоты


Скриншоты - резерв


Прогулка по Англии / Balade Anglaise (2013)

Продолжительность: 01:00:15
Перевод: Субтитры (перевод Éclair Group)
Описание: Английская сельская местность славится своей красотой. Она привлекает еще и потому, что ее достаточно щедро описывали великие писатели. Здесь создается ощущение, что время остановилось… Сегодня вас ожидает рассказ о писателях: Джонатане Коу / Jonathan Coe, Дэвиде Лодже / David Lodge, Грэме Свифте / Graham Swift, Иэне Макьюэне / Ian McEwan.

Скриншоты


Скриншоты - резерв


Другой Лондон / L'autre Londres (2014)

Продолжительность: 00:59:32
Перевод: Субтитры (перевод И. Безлюдной, Éclair Group)
Описание: Лондон – поистине странный город. Он с давних пор привлекает к себе особую категорию граждан: непокорных бунтарей. Сегодня вас ожидает рассказ о писателях: Мартине Эмисе / Martin Amis, Рейчел Каск / Rachel Cusk, Уилле Селфе / Will Self, Адаме Тирлвелле / Adam Thirlwell.

Скриншоты


Скриншоты - резерв


Ирландская сага / Balade irlandaise (2014)

Продолжительность: 01:00:17
Перевод: Субтитры (перевод Е. Маньен, Éclair Group)
Описание: Ирландия – одна из красивейших стран мира. И одна из самых загадочных. Для того, чтобы познать этот остров, истерзанный гражданской войной, нужно пересечь его вдоль и поперек, из одного конца в другой. Сегодня вас ожидает рассказ о писателях: Себастьяном Барри / Sebastian Barry, Дермотом Болджером / Dermot Bolger, Клэр Киган / Claire Keegan, Дженнифер Джонстон / Jennifer Johnston, Полом Линчем / Paul Lynch, Стюартом Невиллом / Stuart Neville.

Скриншоты


Скриншоты - резерв


Короли и королевы детективов / Rois et reines du crime (2014)

Продолжительность: 01:00:16
Перевод: Субтитры (перевод И. Безлюдной, Éclair Group)
Описание: Великобритания – земля мозаик и секретов. Мы пересечем Великобританию с севера на юг, от Гебридских островов на северо-востоке Шотландии до самой южной точки Корнуолла. Мы побываем в гостях у писателей: Питера Мэя, Иэна Рэнкина, Джаспера Ффорде, Ф.Д. Джеймс, Минетт Уолтерс, Джона Ле Карре.

Скриншоты


Скриншоты - резерв


MediaInfo

Полное имя : H:\My Torrents\[apreder]Les_Carnets_de_route_de_François_Busnel\[apreder]Une_Nouvelle-Angleterre(2011)DVB.mpgФормат : MPEG-PSРазмер файла : 1,40 ГбайтПродолжительность : 1 ч. 0 м.Режим общего битрейта : ПеременныйОбщий поток : 3313 Кбит/сек
ВидеоИдентификатор : 224 (0xE0)Формат : MPEG VideoВерсия формата : Version 2Профиль формата : Main@MainПараметр BVOP формата : ДаПараметр матрицы формата : ВыборочнаяПараметр GOP формата : M=3, N=24Продолжительность : 1 ч. 0 м.Вид битрейта : ПеременныйБитрейт : 3055 Кбит/секШирина : 720 пикселейВысота : 576 пикселейСоотношение сторон : 16:9Частота кадров : 25,000 кадров/секСтандарт вещания : PALЦветовое пространство : YUVСубдискретизация насыщенности : 4:2:0Битовая глубина : 8 битТип развёртки : ПрогрессивнаяПорядок развёртки : Верхнее поле первоеМетод сжатия : С потерямиБит/(Пиксели*Кадры) : 0.295Размер потока : 1,29 Гбайт (92%)
АудиоИдентификатор : 192 (0xC0)Формат : MPEG AudioВерсия формата : Version 1Профиль формата : Layer 2Продолжительность : 1 ч. 0 м.Вид битрейта : ПостоянныйБитрейт : 192 Кбит/секКаналы : 2 каналаЧастота : 48,0 КГцМетод сжатия : С потерямиРазмер потока : 83,0 Мбайт (6%)

-

Внимание! Раздача ведётся путём добавления новых выпусков

Внимание! Раздача ведётся путём добавления новых выпусков; при каждом добавлении создаётся новый торрент. Чтобы начать докачку нового выпуска, пользователям необходимо сделать следующее:
(1) остановить скачивание,
(2) удалить старый торрент у себя из клиента (старые серии удалять не надо),
(3) скачать новый торрент и запустить его у себя в клиенте вместо старого, при этом указать клиенту путь в старую папку куда и должно происходить скачивание новых выпусков.
Ваш клиент при этом должен произвести хеширование (проверку) старой папки (если не производит сам - помогите ему сделать это). В результате он будет докачивать только те выпуски, которых у Вас ещё нет. Старые выпуски при этом не удаляются, а продолжают раздаваться!
Eсли Вы уже удалили старые выпуски, то предотвратить их повторную закачку можно, сняв галочки в соответствующих местах при запуске нового торрента. По возможности, желательно не удалять старые выпуски как можно дольше, чтобы релизёр не только продолжал раздавать старые выпуски, но и смог сконцентрироваться на новых.
-645/627√
[teatrix.ru].t9102.torrent 
Торрент: Зарегистрирован [ 2015-10-18 20:31 ] · 08C732A219D96D50981E64A7A26A4F7F19AEB33B

Скачать .torrent

Скачать

41 KB

Статус: проверено
Скачан: 0 раз
Размер: 8.01 GB
terms.php



Быстрый ответ

Имя:

      
Для отправки сообщений необходимо включить JavaScript
Показать сообщения:    

Текущее время: 10-Дек 06:10

Часовой пояс: UTC + 3


Вы можете начинать темы
Вы можете отвечать на сообщения
Вы не можете редактировать свои сообщения
Вы не можете удалять свои сообщения
Вы не можете голосовать в опросах
Вы не можете прикреплять файлы к сообщениям
Вы можете скачивать файлы