Вслух (10 выпусков) [2013, поэзия, WEBRip]


Статистика раздачи [Обновить пиров]
Размер:  3.3 GB   |    Зарегистрирован:  1 год 1 месяц   |    Скачан:  0 раз

Полного источника не было: Никогда

 
   
 
 
 

[Цитировать]

Вслух
Дата/Год выпуска: 2013
Страна: Россия
Жанр: поэзия
Продолжительность: 10 х ~00:39:00
Перевод: Не требуется
Русские субтитры: нет
Телеканал: Россия-К
Описание: Поэзия ушла с телеэкранов, но она не ушла из жизни. В Москве и в других городах России проводятся десятки поэтических фестивалей. Поэзия востребована, у нее сотни поклонников, но знает ли обычный телезритель: кто они – современные поэты? Задача этого цикла программ и ведущего Александра Гаврилова - предоставить поэтам эфирную площадку, где они могут быть услышанными.
В каждый выпуск программы приглашены два признанных, "взрослых" поэта, обладающие разным поэтическим взглядом и почерком. Лучшая визитная карточка поэта – его стихи, поэтому каждый из них и говорит про себя, и спорит с визави средствами поэзии.
Доп. информация: Предыдущие 26 выпусков: http://teatrix.ru/viewtopic.php?t=9163
качество: WEBRip
формат: MP4
Видео 1: AVC, 704х528, 25.000 fps, 1 200 Kbps
Аудио 1: AAC, 96.0 Kbps, 48.0 KHz / 24.0 KHz, 2 ch

MediaInfo

GeneralComplete name : C:\Users\Рая\Downloads\Видео\2013.xx.xx Вслух. Вдохновение - своего рода безумие.mp4Format : MPEG-4Format profile : Base Media / Version 2Codec ID : mp42File size : 363 MiBDuration : 39mn 4sOverall bit rate : 1 298 KbpsEncoded date : UTC 2013-07-01 09:34:22Tagged date : UTC 2013-07-01 09:34:22
VideoID : 1Format : AVCFormat/Info : Advanced Video CodecFormat profile : High@L3.0Format settings, CABAC : YesFormat settings, ReFrames : 2 framesCodec ID : avc1Codec ID/Info : Advanced Video CodingDuration : 39mn 4sBit rate mode : ConstantBit rate : 1 200 KbpsWidth : 704 pixelsHeight : 528 pixelsDisplay aspect ratio : 4:3Frame rate mode : ConstantFrame rate : 25.000 fpsColor space : YUVChroma subsampling : 4:2:0Bit depth : 8 bitsScan type : ProgressiveBits/(Pixel*Frame) : 0.129Stream size : 335 MiB (92%)Language : EnglishEncoded date : UTC 2013-07-01 09:34:22Tagged date : UTC 2013-07-01 09:34:22
AudioID : 2Format : AACFormat/Info : Advanced Audio CodecFormat profile : HE-AAC / LCCodec ID : 40Duration : 39mn 4sBit rate mode : VariableBit rate : 96.0 KbpsMaximum bit rate : 130 KbpsChannel(s) : 2 channelsChannel positions : Front: L RSampling rate : 48.0 KHz / 24.0 KHzCompression mode : LossyStream size : 26.5 MiB (7%)Language : EnglishEncoded date : UTC 2013-07-01 09:34:22Tagged date : UTC 2013-07-01 09:34:22
Видео 2: AVC, 640х480, 25.000 fps, 780 Kbps
Аудио 2: AAC, 62.7 Kbps, 48.0 KHz / 24.0 KHz, 2 ch

MediaInfo

GeneralComplete name : C:\Users\Рая\Downloads\Видео\2013.xx.xx Вслух. Поэзия как часть театрального действия и киносюжета.mp4Format : MPEG-4Format profile : Base Media / Version 2Codec ID : mp42File size : 238 MiBDuration : 39mn 12sOverall bit rate : 847 KbpsEncoded date : UTC 2013-12-17 06:06:18Tagged date : UTC 2013-12-17 06:06:18
VideoID : 1Format : AVCFormat/Info : Advanced Video CodecFormat profile : High@L3.0Format settings, CABAC : YesFormat settings, ReFrames : 2 framesCodec ID : avc1Codec ID/Info : Advanced Video CodingDuration : 39mn 12sBit rate mode : ConstantBit rate : 780 KbpsWidth : 640 pixelsHeight : 480 pixelsDisplay aspect ratio : 4:3Frame rate mode : ConstantFrame rate : 25.000 fpsColor space : YUVChroma subsampling : 4:2:0Bit depth : 8 bitsScan type : ProgressiveBits/(Pixel*Frame) : 0.102Stream size : 219 MiB (92%)Language : EnglishEncoded date : UTC 2013-12-17 06:06:18Tagged date : UTC 2013-12-17 06:06:18
AudioID : 2Format : AACFormat/Info : Advanced Audio CodecFormat profile : HE-AAC / LCCodec ID : 40Duration : 39mn 12sBit rate mode : VariableBit rate : 62.7 KbpsMaximum bit rate : 106 KbpsChannel(s) : 2 channelsChannel positions : Front: L RSampling rate : 48.0 KHz / 24.0 KHzCompression mode : LossyStream size : 17.6 MiB (7%)Language : EnglishEncoded date : UTC 2013-12-17 06:06:18Tagged date : UTC 2013-12-17 06:06:18

Список выпусков2013.xx.xx Вслух. Вдохновение - своего рода безумие

"Вдохновение - своего рода безумие" - говорил Цицерон. А Пушкин определял вдохновение как "расположение души к живейшему приятию впечатлений и соображению понятий, следственно, к объяснению оных". Так что же есть вдохновение? Насколько необходимое это условие творчества? Какова связь вдохновения и интуиции? Как отличить подлинную поэтическую мысль от суррогата?
Участвуют: Ольга Седакова и отец Сергей Круглов. Молодые поэты: Антон Шагин, Константин Комаров (Екатеринбург).

2013.xx.xx Вслух. Девушка и герой. Мужчина в современной женской поэзии

В современном обществе гендерные роли сдвинуты и перепутаны. А в поэзии? Каков он - мужчина-герой? За что его любят и ненавидят сами авторы? И есть ли в современных поэтических "мужчинах" что-то общее?
Участники: Евгения Лавут и Мария Ватутина. Молодые поэты: Ольга Хохлова (Санкт-Петербург), Яна Акулинина.

2013.xx.xx Вслух. Когда поэт злится

Злоба - как катализатор творчества? В хрестоматийных стихах Николая Некрасова "Блажен незлобливый поэт" покладистость поэта дает ему временную популярность, а злость - славу вечную… Так ли это? Зачем вообще поэту злиться? Чем благотворна злоба и чего она лишает? Участники: Павел Арсеньев (Санкт-Петербург) и Антон Очиров. Молодые поэты: Екатерина Симонова (Екатеринбург), Нестор Пилявский.

2013.xx.xx Вслух. Поэзия как событие. Поэзия как актуальное высказывание

Миновать время, как заклинала Марина Цветаева, или идти с ним в ногу? Время внутреннее и время внешнее - как согласуются они в голове поэта? Насколько поэтическое высказывание обязано быть актуальным и своевременным? Стоит ли поэту использовать для этого все возможные каналы и коммуникации? Участвуют: Елена Фанайлова, Кирилл Медведев. Молодые поэты из Санкт-Петербурга Роман Осминкин и Константин Шавловский.

2013.xx.xx Вслух. Поэзия как часть театрального действия и киносюжета

Бывают стихи, которые "намертво" связаны с той или иной театральной постановкой или фильмом. Но хорошо ли это для поэта? Сложно ли поэту прятаться: за актерским исполнением, за мощной аранжировкой, за блистательной режиссурой? Что добавляет театру и кино поэзия? Стихи как представление, как часть шоу, какими они должны быть?
Участники: Юлий Ким, Ирина Богушевская. Молодые поэты: Дана Сидерос, Юрий Лобиков.

2013.xx.xx Вслух. Поэт и детство

"Детство - это единственная сокровищница писателя, из которой он черпает всю жизнь, " - говорил Джеральд Даррелл. Тоска по детству - это невозможность узнавания? Но всегда ли поэту детство дорого именно этим? И вообще, всегда ли поэту дорого детство? Насколько поэзия, в определенном смысле, побег от взросления?
Участники: Дина Гатина и Геннадий Каневский. Молодые поэты: Лиза Неклесса, Марк Кирдань.

2013.xx.xx Вслух. Поэт и звери

Звери в поэзии бывают разные - ласковые и агрессивные, ангельские и демонические, друзья и предатели. Какой внутренний зверь сидит в каждом из нас? Можно ли его приручить? Насколько поэт должен любить и остерегаться зверей в своих стихах?
Участники: Андрей Усачев и Вадим Месяц. Молодые поэты: Галина Дядина (Арзамас), Егор Мирный (Мелеуз).

2013.xx.xx Вслух. Поэт и классика

С одной стороны, каждый новый поэт стремится разрушить традицию, отвоевать собственное пространство. Но, чем старше он становится, тем больше восхищения вызывают у него стихи классиков. Может ли рождаться новое, не попирая старого?
Участники: Кирилл Ковальджи и Николай Байтов. Молодые поэты: Наталья Полякова, Андрей Егоров (Петропавловск-Камчатский).

2013.xx.xx Вслух. Поэт и путешествия

У каждого поэта свое "поэтическое топливо". Для многих поэтов таким "топливом" являются путешествия. Почему движение призывает вдохновение? Охота к перемене мест - попытка убежать от себя или найти себя истинного? Что открывается поэту в другой стране? "Что ищет он в стране далекой"? И что "кинул он в краю родном"?
Участники: Олег Дозморов (Лондон), Елена Сунцова (Нью-Йорк). Молодые поэты: Антон Бахарев-Черненок (Пермь), Елена Баянгулова (Екатеринбург).

2013.xx.xx Вслух. Поэт и слава

Поэтическая слава при жизни - зыбкое явление. Слава народная - более очевидное, но тщетное и почти фатальное. Слава посмертная… кому она достанется? Но может ли поэт прожить "бесславно"? Какая слава ему нужна? Насколько слава губительна для поэта? Что делать, когда "после славы" уходят стихи? И стоит ли винить в этом себя?
Участники: Владимир Салимон и Данила Давыдов. Молодые поэты: Вадим Керамов, Андрей Муждаба (Санкт-Петербург).
Спасибо всем, кто остаётся на раздаче!
[teatrix.ru].t9103.torrent 
Торрент: Зарегистрирован [ 2015-10-18 20:31 ] · 6232B8A4E76EE9EC4B29A99F0E4F8762ADCD41B2

Скачать .torrent

Скачать

18 KB

Статус: проверено
Скачан: 0 раз
Размер: 3.3 GB
terms.php



Быстрый ответ

Имя:

      
Для отправки сообщений необходимо включить JavaScript
Показать сообщения:    

Текущее время: 05-Дек 03:31

Часовой пояс: UTC + 3


Вы можете начинать темы
Вы можете отвечать на сообщения
Вы не можете редактировать свои сообщения
Вы не можете удалять свои сообщения
Вы не можете голосовать в опросах
Вы не можете прикреплять файлы к сообщениям
Вы можете скачивать файлы