Тим и его Вермеер / Tim's Vermeer (Теллер / Teller) [2013, Док. фильм, SATRip]


Статистика раздачи [Обновить пиров]
Размер:  436 MB   |    Зарегистрирован:  1 год 1 месяц   |    Скачан:  2 раза

Полного источника не было: 14 дней

 
   
 
 
 

[Цитировать]

Тим и его Вермеер / Tim's Vermeer
Дата/Год выпуска: 2013
Страна: США
Жанр: Док. фильм
Продолжительность: 01:16:40
Перевод: Субтитры
Русские субтитры: есть
Формат субтитров: hardsub (неотключаемые)
Оригинальная аудиодорожка: английский
Режиссер: Теллер / Teller
Описание: Художник и изобретатель Тим Дженисон пытается постичь секреты техники великого Вермеера ...
SATRip от : Твид
Доп. информация: Любезно предоставлено клубом Fenix
Сэмпл: http://multi-up.com/983263
качество: SATRip
формат: AVI
Видео: XviD, 660 kb/s, 640x480, 25 fps, 0.086 bits/pixel
Аудио: 0x0055(MP3) ID'd as MPEG-1 Layer 3, 128 kb/s (2/ch, stereo) CBR, 48000 Hz - английский

MediaInfo

ОбщееПолное имя : D:\FILMS\Tim i ego Vermeer.SAT-rip.by.Твид.fenixclub.aviФормат : AVIФормат/Информация : Audio Video InterleaveРазмер файла : 436 МбайтПродолжительность : 1 ч. 16 м.Общий поток : 795 Кбит/сек
ВидеоИдентификатор : 0Формат : MPEG-4 VisualПрофиль формата : Advanced Simple@L5Параметр BVOP формата : 2Параметр QPel формата : НетПараметр GMC формата : Без точки переходаПараметр матрицы формата : Default (H.263)Идентификатор кодека : XVIDИдентификатор кодека/Подсказка : XviDПродолжительность : 1 ч. 16 м.Битрейт : 657 Кбит/секШирина : 640 пикселейВысота : 480 пикселейСоотношение сторон : 4:3Частота кадров : 25,000 кадров/секЦветовое пространство : YUVСубдискретизация насыщенности : 4:2:0Битовая глубина : 8 битТип развёртки : ПрогрессивнаяМетод сжатия : С потерямиБит/(Пиксели*Кадры) : 0.086Размер потока : 360 Мбайт (83%)Библиотека кодирования : XviD 1.1.2 (UTC 2006-11-01)
АудиоИдентификатор : 1Формат : MPEG AudioВерсия формата : Version 1Профиль формата : Layer 3Режим : Joint stereoРасширение режима : MS StereoИдентификатор кодека : 55Идентификатор кодека/Подсказка : MP3Продолжительность : 1 ч. 16 м.Вид битрейта : ПостоянныйБитрейт : 128 Кбит/секКаналы : 2 каналаЧастота : 48,0 КГцМетод сжатия : С потерямиРазмер потока : 70,2 Мбайт (16%)Выравнивание : Разделение по промежуткамПродолжительность промежутка : 40 мс. (1,00 видеокадр)Время предзагрузки промежутка : 500 мс.

Скриншоты

[teatrix.ru].t9104.torrent 
Торрент: Зарегистрирован [ 2015-10-18 20:31 ] · 0A0EBF7D49F3C1E4DC396117E60466BFCB504CC6

Скачать .torrent

Скачать

18 KB

Статус: проверено
Скачан: 2 раз
Размер: 436 MB
terms.php



Быстрый ответ

Имя:

      
Для отправки сообщений необходимо включить JavaScript
Показать сообщения:    

Текущее время: 11-Дек 01:21

Часовой пояс: UTC + 3


Вы можете начинать темы
Вы можете отвечать на сообщения
Вы не можете редактировать свои сообщения
Вы не можете удалять свои сообщения
Вы не можете голосовать в опросах
Вы не можете прикреплять файлы к сообщениям
Вы можете скачивать файлы