Мастера - Стеклодувы (2 фильма) [2013, Документальный, TVRip]


Статистика раздачи [Обновить пиров]
Размер:  387 MB   |    Зарегистрирован:  1 год 1 месяц   |    Скачан:  1 раз

Полного источника не было: 8 месяцев 2 дня

 
   
 
 
 

[Цитировать]

"Мастера" - Стеклодувы (2 фильма) Дата/Год выпуска: 2013
Страна: Россия
Жанр: Документальный
Продолжительность: 00.27.54 и 00.18.50
Перевод: Не требуется
Русские субтитры: нет
Оригинальная аудиодорожка: нет
Телеканал: Россия2 и ОТР
Описание: 2 д/ф о производстве стекла:
1) Документальный фильм рассказывает о художнике Адольфе Курилове и мастере-выдувальщике Евгении Гусеве. За долгие годы этот творческий союз создал множество работ из стекла - от самых простых форм до удивительных по своей красоте издели
2) Тимур Сулатнов отправляется в очередное путешествие, чтобы познакомиться с очередной профессией. Стекло - пожалуй, самый загадочный материал на нашей планете. Корни его истории уходят в глубокую древность. Вокруг истории изобретения стекла гуляет немало легенд, а освоить стеклодувный процесс удавалось лишь избранным.
качество: TVRip
формат: AVI-Видео: Xvid/ 640х480 / 870 kbps / 23,976 кадра/сек
Аудио: MPEG Audio Layer 3 (MP3), 2 channels - Joint stereo, 48.0 kHz, 128 kbps-
-
-Видео2: Xvid/ 640х386 / 879 kbps / 23,976 кадра/сек
Аудио2: MPEG Audio Layer 3 (MP3), 2 channels - Joint stereo, 48.0 kHz, 128 kbps
Доп. информация: http://youtu.be/zkBPnhKIbQQ http://www.otr-online.ru/news/programmparts_15140.html

Сэмпл1 http://yadi.sk/d/si2F3IjkRdnKj
Сэмпл2 http://yadi.sk/d/uHbFyf_aRdnKV-

MediaInfo1

ОбщееФормат : AVIФормат/Информация : Audio Video InterleaveРазмер файла : 184 МбайтПродолжительность : 25 м.Общий поток : 998 Кбит/секПрограмма кодирования : Lavf52.32.0
ВидеоИдентификатор : 0Формат : MPEG-4 VisualПрофиль формата : Simple@L1Параметр BVOP формата : НетПараметр QPel формата : НетПараметр GMC формата : Без точки переходаПараметр матрицы формата : Default (H.263)Идентификатор кодека : DIVXИдентификатор кодека/Информация : Project MayoИдентификатор кодека/Подсказка : DivX 4Продолжительность : 25 м.Битрейт : 858 Кбит/секШирина : 640 пикселейВысота : 480 пикселейСоотношение сторон : 4:3Частота кадров : 23,976 кадра/секЦветовое пространство : YUVСубдискретизация насыщенности : 4:2:0Битовая глубина : 8 битТип развёртки : ПрогрессивнаяМетод сжатия : С потерямиБит/(Пиксели*Кадры) : 0.117Размер потока : 159 Мбайт (86%)Библиотека кодирования : Lavc52.22.3
АудиоИдентификатор : 1Формат : MPEG AudioВерсия формата : Version 1Профиль формата : Layer 3Режим : Joint stereoРасширение режима : MS StereoИдентификатор кодека : 55Идентификатор кодека/Подсказка : MP3Продолжительность : 25 м.Вид битрейта : ПостоянныйБитрейт : 128 Кбит/секКаналы : 2 каналаЧастота : 44,1 КГцМетод сжатия : С потерямиРазмер потока : 23,7 Мбайт (13%)Выравнивание : Соединение по промежуткамПродолжительность промежутка : 26 мс. (0,63 видеокадр)Библиотека кодирования : LAME3.98.2ЄЄЄЄЄЄЄЄЄЄ

MediaInfo2

ОбщееФормат : AVIФормат/Информация : Audio Video InterleaveРазмер файла : 203 МбайтПродолжительность : 27 м.Общий поток : 1016 Кбит/секПрограмма кодирования : VirtualDubMod 1.5.10.2 (build 2540/release)Библиотека кодирования : VirtualDubMod build 2540/release
ВидеоИдентификатор : 0Формат : MPEG-4 VisualПрофиль формата : Advanced Simple@L5Параметр BVOP формата : 1Параметр QPel формата : НетПараметр GMC формата : Без точки переходаПараметр матрицы формата : Default (MPEG)Режим смешивания : Сжатый битовый потокИдентификатор кодека : XVIDИдентификатор кодека/Подсказка : XviDПродолжительность : 27 м.Битрейт : 879 Кбит/секШирина : 640 пикселейВысота : 386 пикселейСоотношение сторон : 4:3Соотношение сторон в оригинале : 3:2Частота кадров : 23,976 кадра/секЦветовое пространство : YUVСубдискретизация насыщенности : 4:2:0Битовая глубина : 8 битТип развёртки : ПрогрессивнаяМетод сжатия : С потерямиБит/(Пиксели*Кадры) : 0.148Размер потока : 175 Мбайт (86%)Библиотека кодирования : XviD 73
АудиоИдентификатор : 1Формат : MPEG AudioВерсия формата : Version 1Профиль формата : Layer 3Режим : Joint stereoРасширение режима : MS StereoИдентификатор кодека : 55Идентификатор кодека/Подсказка : MP3Продолжительность : 27 м.Вид битрейта : ПостоянныйБитрейт : 128 Кбит/секКаналы : 2 каналаЧастота : 44,1 КГцМетод сжатия : С потерямиРазмер потока : 25,5 Мбайт (13%)Выравнивание : Разделение по промежуткамПродолжительность промежутка : 42 мс. (1,00 видеокадр)Время предзагрузки промежутка : 500 мс.Библиотека кодирования : LAME3.98.2

Скриншоты

Скриншоты2

[teatrix.ru].t9107.torrent 
Торрент: Зарегистрирован [ 2015-10-18 20:31 ] · 874265587048794C379C71022DD19F22A3278759

Скачать .torrent

Скачать

16 KB

Статус: проверено
Скачан: 1 раз
Размер: 387 MB
terms.php



Быстрый ответ

Имя:

      
Для отправки сообщений необходимо включить JavaScript
Показать сообщения:    

Текущее время: 03-Дек 05:29

Часовой пояс: UTC + 3


Вы можете начинать темы
Вы можете отвечать на сообщения
Вы не можете редактировать свои сообщения
Вы не можете удалять свои сообщения
Вы не можете голосовать в опросах
Вы не можете прикреплять файлы к сообщениям
Вы можете скачивать файлы