Игра в бисер с Игорем Волгиным (канал Россия Культура) [2013 - 2014, Ток-шоу, DVB] Обновлено 27.05.2014


Статистика раздачи [Обновить пиров]
Размер:  28.15 GB   |    Зарегистрирован:  1 год 1 месяц   |    Скачан:  0 раз

Полного источника не было: Никогда

 
   
 
 
 

[Цитировать]

Игра в бисер с Игорем Волгиным
Год выпуска: 2013 - 2014
Страна: Россия
Жанр: Ток-шоу
Продолжительность: ~ по 00:39:00 выпуск
Перевод: Не требуется
Режиссер: канал Россия Культура
Описание: Ведущий ток-шоу Игорь Волгин приглашает поучастовать в своеобразной игре для всех, кто воспринимает мировую литературу как уже написанную книгу, которую никто и никогда не постигнет до конца, и, тем не менее, каждое новое прочтение удивительно.
Когда мы говорим, что классика всегда современна, мы не задумываемся, что именно в созданном десятилетия, а то и века назад художественном произведении созвучно дню сегодняшнему, представлению современного человека о себе самом. Участники ток-шоу "Игра в бисер" с Игорем Волгиным пытаются найти ответы на этот вопрос и, заглянув в лучшие образцы мировой литературы, понять - кто мы и что мы.
Доп. информация: Все раздачи программы Игра в бисер с Игорем Волгиным
Сэмпл: http://multi-up.com/904381
качество: DVB
формат: MPG
Видео: MPEG-PS, 768@720x576, 4:3, 4249 kbps, 0.410 bit/pixel, 25 fps
Аудио: MPEG-1 Layer 2, 48000Hz 2 chanal

Список выпусков/серий

2013-09-17. Анна Ахматова - Лирика
2013-10-01. Михаил Булгаков - Театральный роман
2013-10-08. Николай Некрасов - Кому на Руси жить хорошо
2013-10-15. Василий Аксенов - Остров Крым
2013-10-22. Джек Лондон - Мартин Иден
2013-10-29. А.С. Пушкин - Маленькие трагедии
2013-11-05. Гомер - Илиада
2013-11-12. Осип Мандельштам - Поэзия
2013-11-19. Томас Манн - Смерть в Венеции
2013-11-26. Евгений Шварц - Голый король
2013-13-03. Л.Н. Толстой - Хаджи-Мурат
2013-12-10. Валентин Катаев - Алмазный мой венец
2013-12-17. И.С. Тургенев - Ася
2013-12-24. Ф.С. Фицджеральд - Ночь нежна
2014-01-14. Юрий Трифонов - Дом на набережной
2014-02-04. Ф.М.Достоевский - Записки из подполья
2014-02-11. Василий Шукшин - Рассказы
2014-02-14. Владимир Набоков - Лолита
2014-03-04. А.П.Чехов - Дама с собачкой
2014-03-11. Джонатан Свифт - Приключения Гулливера
2014-03-25. Уильям Шекспир - Сонеты
2014-04-08. Джером Сэлинджер - Над пропастью во ржи
2014-04-15. Борис Пастернак - Лирика
2014-04-22. И. Ильф, Е. Петров - 12 стульев
2014-04-29. Пьер Амбруаз Франсуа Шодерло де Лакло - Опасные связи
2014-05-06. А. Твардовский - Василий Теркин
2014-05-13. А.Н. Островский - Бесприданница
2014-05-27. Курт Воннегут - Бойня №5, или Крестовый поход детей

MediaInfo

Общее
Полное имя : D:\2013-09-17. Анна Ахматова - Лирика.mpg
Формат : MPEG-PS
Размер файла : 1,24 Гбайт
Продолжительность : 39 м.
Режим общего битрейта : Переменный
Общий поток : 4531 Кбит/сек
Библиотека кодирования : (c) 1998-2009 Womble Multimedia, Inc. / MPEG Video Wizard (03/2009) / Jun 24 2009
Видео
Идентификатор : 224 (0xE0)
Формат : MPEG Video
Версия формата : Version 2
Профиль формата : Main@Main
Параметр BVOP формата : Да
Параметр матрицы формата : Выборочная
Параметр GOP формата : Variable
Продолжительность : 39 м.
Вид битрейта : Переменный
Битрейт : 4249 Кбит/сек
Максимальный битрейт : 15,0 Мбит/сек
Ширина : 720 пикселей
Высота : 576 пикселей
Соотношение сторон : 4:3
Частота кадров : 25,000 кадров/сек
Стандарт вещания : PAL
Цветовое пространство : YUV
Субдискретизация насыщенности : 4:2:0
Битовая глубина : 8 бит
Тип развёртки : Чересстрочная
Порядок развёртки : Верхнее поле первое
Метод сжатия : С потерями
Бит/(Пиксели*Кадры) : 0.410
TimeCode_FirstFrame : 00:00:00:00
TimeCode_Source : Group of pictures header
Размер потока : 1,16 Гбайт (94%)
Библиотека кодирования : (c) 1998-2009 Womble Multimedia, Inc. / MPEG Video Wizard (03/2009) / Jun 24 2009
Аудио
Идентификатор : 192 (0xC0)
Формат : MPEG Audio
Версия формата : Version 1
Профиль формата : Layer 2
Продолжительность : 39 м.
Вид битрейта : Постоянный
Битрейт : 192 Кбит/сек
Каналы : 2 канала
Частота : 48,0 КГц
Метод сжатия : С потерями
Размер потока : 53,6 Мбайт (4%)

Скриншоты

Выпуски вне раздачи:
2014-01-21. Максим Горький - Васса Железнова http://yadi.sk/d/sJudT38IGXJz7 вэбрип
2014-05-20. Герман Гессе - Игра в бисер http://yadi.sk/d/fgHHMY9WR6V9R вэбрип
[teatrix.ru].t9108.torrent 
Торрент: Зарегистрирован [ 2015-10-18 20:31 ] · 762B6FB6E88A41E0B7B3D9E81953D2A8D261F635

Скачать .torrent

Скачать

74 KB

Статус: проверено
Скачан: 0 раз
Размер: 28.15 GB
terms.php



Быстрый ответ

Имя:

      
Для отправки сообщений необходимо включить JavaScript
Показать сообщения:    

Текущее время: 10-Дек 04:08

Часовой пояс: UTC + 3


Вы можете начинать темы
Вы можете отвечать на сообщения
Вы не можете редактировать свои сообщения
Вы не можете удалять свои сообщения
Вы не можете голосовать в опросах
Вы не можете прикреплять файлы к сообщениям
Вы можете скачивать файлы