Музей художественного стекла в Санкт-Петербурге [2013, Документальный, TVRip]


Статистика раздачи [Обновить пиров]
Размер:  187 MB   |    Зарегистрирован:  1 год 1 месяц   |    Скачан:  0 раз

Полного источника не было: Никогда

 
   
 
 
 

[Цитировать]

Музей художественного стекла в Санкт-Петербурге Дата/Год выпуска: 2013
Страна: Россия
Жанр: Документальный
Продолжительность: 00:27:19
Перевод: Не требуется
Русские субтитры: нет
Оригинальная аудиодорожка: русский
Телеканал: RTG HD
Описание: Рассказ о ЛЗХС!
Доп. информация: Спасибо kir74i за исходник!

Сэмпл: http://yadi.sk/d/-eihNxuHR7Ee2
качество: TVRip
формат: AVI
Видео: Xvid/ 640х480 / 819 kbps / 23,976 кадра/сек
Аудио: MPEG Audio Layer 3 (MP3), 2 channels - Joint stereo, 48.0 kHz, 128 kbps

MediaInfo

ОбщееПолное имя : D:\Кино-музыка\Музей художественного стекла в Санкт-Петербурге (RTGHD).aviФормат : AVIФормат/Информация : Audio Video InterleaveРазмер файла : 187 МбайтПродолжительность : 27 м.Общий поток : 959 Кбит/секПрограмма кодирования : Lavf52.32.0
ВидеоИдентификатор : 0Формат : MPEG-4 VisualПрофиль формата : Simple@L1Параметр BVOP формата : НетПараметр QPel формата : НетПараметр GMC формата : Без точки переходаПараметр матрицы формата : Default (H.263)Идентификатор кодека : DIVXИдентификатор кодека/Информация : Project MayoИдентификатор кодека/Подсказка : DivX 4Продолжительность : 27 м.Битрейт : 819 Кбит/секШирина : 640 пикселейВысота : 480 пикселейСоотношение сторон : 4:3Частота кадров : 23,976 кадра/секЦветовое пространство : YUVСубдискретизация насыщенности : 4:2:0Битовая глубина : 8 битТип развёртки : ПрогрессивнаяМетод сжатия : С потерямиБит/(Пиксели*Кадры) : 0.111Размер потока : 160 Мбайт (85%)Библиотека кодирования : Lavc52.22.3
АудиоИдентификатор : 1Формат : MPEG AudioВерсия формата : Version 1Профиль формата : Layer 3Режим : Joint stereoРасширение режима : MS StereoИдентификатор кодека : 55Идентификатор кодека/Подсказка : MP3Продолжительность : 27 м.Вид битрейта : ПостоянныйБитрейт : 128 Кбит/секКаналы : 2 каналаЧастота : 44,1 КГцМетод сжатия : С потерямиРазмер потока : 25,0 Мбайт (13%)Выравнивание : Соединение по промежуткамПродолжительность промежутка : 26 мс. (0,63 видеокадр)

Скриншоты

[teatrix.ru].t9109.torrent 
Торрент: Зарегистрирован [ 2015-10-18 20:31 ] · 4493EE773ADB1B0165BF0DDF83280E25398A5183

Скачать .torrent

Скачать

15 KB

Статус: проверено
Скачан: 0 раз
Размер: 187 MB
terms.php



Быстрый ответ

Имя:

      
Для отправки сообщений необходимо включить JavaScript
Показать сообщения:    

Текущее время: 09-Дек 12:46

Часовой пояс: UTC + 3


Вы можете начинать темы
Вы можете отвечать на сообщения
Вы не можете редактировать свои сообщения
Вы не можете удалять свои сообщения
Вы не можете голосовать в опросах
Вы не можете прикреплять файлы к сообщениям
Вы можете скачивать файлы