Мастера ювелирного искусства / The Royal Jewellers (Костас Метаксас / Kostas Metaxas) [2007, ТВ-сериал, TVRip]


Статистика раздачи [Обновить пиров]
Размер:  2.24 GB   |    Зарегистрирован:  1 год 1 месяц   |    Скачан:  0 раз

Полного источника не было: Никогда

 
   
 
 
 

[Цитировать]

Мастера ювелирного искусства / The Royal Jewellers
Год выпуска: 2007
Страна: Австралия
Жанр: документальный ТВ-сериал
Продолжительность: ~00:22:00 (1 серия)
Перевод: Профессиональный (двухголосый закадровый)
Русские субтитры: нет
Режиссер: Костас Метаксас / Kostas Metaxas
Телеканал: Fine Living
Описание: Ювелирные изделия - это поэзия, философия, история, технология. Это современное выражение богатого культурного наследия, вдохновленного историей самых прекрасных моментов, совершенством природы, красотой и грацией звезд, чудесных микроскопических структур, составляющих основу самой жизни. 10 эпизодов о 20-ти самых страстных ювелирах, которые поставили перед собой задачу, создать самые красивые драгоценности в мире. У зрителей появился шанс попасть в их потайные мастерские, которые раньше никто не видел.
Доп. информация: Запись с канала "Fine living". Релиз мой.
Сэмпл: http://yadi.sk/d/LgNqVcAnPghQ4
качество: TVRip
формат: AVI
Видео: 1477 Кbps, 704х432 (1.630), 25.000 fps, MPEG-4 Visual (XviD)(Advanced Simple@L5)(BVOP2)
Аудио: 128 Kbps,48.0 KHz, 2 сhannels, MPEG Audio (MP3) (Version 1)(Layer 3)(Joint stereo)

Список эпизодов

01. Максанс Ван Дер Бауд (Швеция), Флориан Вагнер (Австрия)
02. Альберта Вита и Лючия Даванцо (Италия), Кристиан Эммерле (Германия)
03. Ева Лойб (Австралия), Уильям Майзлин и Сет Феллер (Канада)
05. Станислас де Керсис (Франция), Джоанна Лалаунис (Греция)
06. Мишель Онг (Гонконг), Ульрик Гарде Дью (Германия)
07. Мария Лалаунис (Греция), Роберто Коин (Италия)
08. Мария Кристина Бучелатти (Италия), Марк Эванс (Лондон)
09. Фаваз Груози (Швейцария), Шон Гилбертсон (Великобритания)
10. Севан Бичакчи (Турция), Кристов и Вольфганг Кёхерт (Австрия)

MediaInfo

GeneralComplete name : D:\The Royal Jewellers\01-Van Der Bauwede,Florian Wagner.aviFormat : AVIFormat/Info : Audio Video InterleaveFile size : 231 MiBDuration : 19mn 57sOverall bit rate : 1 615 KbpsWriting library : VirtualDub-MPEG2 build 24600/release
VideoID : 0Format : MPEG-4 VisualFormat profile : Advanced Simple@L5Format settings, BVOP : 2Format settings, QPel : NoFormat settings, GMC : No warppointsFormat settings, Matrix : Default (MPEG)Codec ID : XVIDCodec ID/Hint : XviDDuration : 19mn 57sBit rate : 1 477 KbpsWidth : 704 pixelsHeight : 432 pixelsDisplay aspect ratio : 1.630Frame rate : 25.000 fpsColor space : YUVChroma subsampling : 4:2:0Bit depth : 8 bitsScan type : ProgressiveCompression mode : LossyBits/(Pixel*Frame) : 0.194Stream size : 211 MiB (91%)Writing library : XviD 58
AudioID : 1Format : MPEG AudioFormat version : Version 1Format profile : Layer 3Mode : Joint stereoMode extension : MS StereoCodec ID : 55Codec ID/Hint : MP3Duration : 19mn 57sBit rate mode : ConstantBit rate : 128 KbpsChannel(s) : 2 channelsSampling rate : 48.0 KHzCompression mode : LossyStream size : 18.3 MiB (8%)Alignment : Split accross interleavesInterleave, duration : 40 ms (1.00 video frame)Interleave, preload duration : 500 ms

Скриншоты

[teatrix.ru].t9110.torrent 
Торрент: Зарегистрирован [ 2015-10-18 20:31 ] · 058F1E81C2E2F7EC540E09FEF0BDCE3B164E93FA

Скачать .torrent

Скачать

5 KB

Статус: проверено
Скачан: 0 раз
Размер: 2.24 GB
terms.php



Быстрый ответ

Имя:

      
Для отправки сообщений необходимо включить JavaScript
Показать сообщения:    

Текущее время: 04-Дек 15:17

Часовой пояс: UTC + 3


Вы можете начинать темы
Вы можете отвечать на сообщения
Вы не можете редактировать свои сообщения
Вы не можете удалять свои сообщения
Вы не можете голосовать в опросах
Вы не можете прикреплять файлы к сообщениям
Вы можете скачивать файлы