Эрвин Вурм – художник, проглотивший мир / Erwin Wurm – The Artist Who Swallowed the World / Erwin Wurm - Der Künstler der die Welt verschluckt (Лорин Мерц / Laurin Merz) [2012, концептуальное искусство, деконструктивизм, DVB] DVO (Глагол)


Статистика раздачи [Обновить пиров]
Размер:  863 MB   |    Зарегистрирован:  1 год 1 месяц   |    Скачан:  0 раз

Полного источника не было: Никогда

 
   
 
 
 

[Цитировать]

Эрвин Вурм – художник, проглотивший мир
Erwin Wurm – The Artist Who Swallowed the World- Дата/Год выпуска: 2012
Страна: Швейцария, Австрия, Германия
Жанр: документальный, концептуальное искусство, деконструктивизм
Продолжительность: 00:52:46
Перевод: Профессиональный (двухголосый закадровый)
Доп. инфо о переводе: Студия звукозаписи "Глагол", текст читают Марина Гладкая, Дмитрий Оргин
Русские субтитры: нет
Режиссер: Лорин Мерц / Laurin Merz
Телеканал: 24ДОК
Описание: Австриец Эрвин Вурм – один из самых известных современных художников. Он создавал одноминутные и пьющие скульптуры, посвятил целую серию работ свитеру, делал толстые дома и толстые машины. Но никогда не хотел тем самым кого-то насмешить. Работы Вурма – это история про общество потребления, глобализацию, глянец, но главный объект его творческих исследований – это свойства формы. Краткий видео-экскурс в творчество художника сделала группа Red Hot Chili Peppers в клипе на песню Can’t Stop, посвященном Вурму. А Лорин Мерц снял полноценный документальный фильм, который исследует мир художника, его провокационное творчество и всемирный успех. (анонс канала "24ДОК")
Доп. информация: Участник Solothurner Filmtage 2013; Docville International Documentary Film Festival Leuven 2013; Festival International du Film sur l'Art (FIFA) Montréal 2014.
http://www.imdb.com/title/tt2447010/
Сэмпл: http://multi-up.com/966347
качество: DVB-S
формат: MPEG-PS
Видео: MPEG Video 2, 720x576@768x576 (4:3), 25 fps, ~2047 kbps avg, 0.197 bit/pixel
Аудио: 48 kHz, MPEG Audio 2, 2 ch, ~192.00 kbps avg

MediaInfo

Полное имя : H:\My Torrents\[apreder]Erwin_Wurm_The_Artist_Who_Swallowed_the_World(2012)DVB.mpgФормат : MPEG-PSРазмер файла : 863 МбайтПродолжительность : 52 м.Режим общего битрейта : ПеременныйОбщий поток : 2284 Кбит/сек
ВидеоИдентификатор : 224 (0xE0)Формат : MPEG VideoВерсия формата : Version 2Профиль формата : Main@MainПараметр BVOP формата : ДаПараметр матрицы формата : ВыборочнаяПараметр GOP формата : VariableПродолжительность : 52 м.Вид битрейта : ПеременныйБитрейт : 2047 Кбит/секШирина : 720 пикселейВысота : 576 пикселейСоотношение сторон : 4:3Частота кадров : 25,000 кадров/секСтандарт вещания : PALЦветовое пространство : YUVСубдискретизация насыщенности : 4:2:0Битовая глубина : 8 битТип развёртки : ЧересстрочнаяПорядок развёртки : Верхнее поле первоеМетод сжатия : С потерямиБит/(Пиксели*Кадры) : 0.197Временной код первого кадра : 00:00:00:00Оригинал временного кода : Group of pictures headerРазмер потока : 773 Мбайт (90%)
АудиоИдентификатор : 192 (0xC0)Формат : MPEG AudioВерсия формата : Version 1Профиль формата : Layer 2Продолжительность : 52 м.Вид битрейта : ПостоянныйБитрейт : 192 Кбит/секКаналы : 2 каналаЧастота : 48,0 КГцМетод сжатия : С потерямиРазмер потока : 72,5 Мбайт (8%)

Скриншоты


Резервные скриншоты


-1'245/1'226√[-4]
[teatrix.ru].t9113.torrent 
Торрент: Зарегистрирован [ 2015-10-18 20:31 ] · A09E6FDF502DC8F362D63294570877F822B70482

Скачать .torrent

Скачать

17 KB

Статус: проверено
Скачан: 0 раз
Размер: 863 MB
terms.php



Быстрый ответ

Имя:

      
Для отправки сообщений необходимо включить JavaScript
Показать сообщения:    

Текущее время: 04-Дек 21:21

Часовой пояс: UTC + 3


Вы можете начинать темы
Вы можете отвечать на сообщения
Вы не можете редактировать свои сообщения
Вы не можете удалять свои сообщения
Вы не можете голосовать в опросах
Вы не можете прикреплять файлы к сообщениям
Вы можете скачивать файлы