Клод Моне в Живерни. Дом Алисы / Claude Monet a Giverny, la maison d'Alice / Claude Monet in Giverny, Alice's house (Филипп Пиге / Philippe Piguet) [2010, документальный, биографический, DVB] DVO (Ред Медиа)


Статистика раздачи [Обновить пиров]
Размер:  793 MB   |    Зарегистрирован:  1 год 1 месяц   |    Скачан:  1 раз

Полного источника не было: 6 месяцев 16 дней

 
   
 
 
 

[Цитировать]

Клод Моне в Живерни. Дом Алисы
Claude Monet à Giverny, la maison d'Alice- Дата/Год выпуска: 2010
Страна: Франция
Жанр: документальный, биографический
Продолжительность: 00:49:51
Перевод: Профессиональный (двухголосый закадровый)
Доп. инфо о переводе: ТПО "Ред Медиа"
Русские субтитры: нет
Оригинальная аудиодорожка: нет
Режиссер: Филипп Пиге / Philippe PiguetТелеканал: 365 дней
Описание: Клод Моне (1840–1926) считал сад в Живерни своим величайшим шедевром.
В этом утопающем в цветах убежище "отца импрессионизма" можно лучше понять творчество Моне: всеми чувствами впитать в себя источники его вдохновения и увидеть, как перед глазами возникают "живые картины" — сюжеты знакомых полотен Моне. Можно даже представить, что вот он, живой, прогуливается среди нас.
Дом и особенно сад Клода Моне тоже являются произведением искусства: художник посвятил добрую половину жизни созданию и обустройству этих цветников, прудов, лужаек, ставших для него настоящей мастерской на открытом воздухе.
Доп. информация: Участник Festival International du Film sur l’Art (FIFA) 2012.
Сэмпл: http://multi-up.com/965623
качество: DVB-S
формат: MPEG-PS
Видео: MPEG Video 2, 720x576@768x576 (4:3), 25 fps, ~1987 kbps avg, 0.192 bit/pixel
Аудио: 48 kHz, MPEG Audio 2, 2 ch, ~192.00 kbps avg

MediaInfo

Полное имя : H:\My Torrents\[apreder]Claude_Monet_a_Giverny_la_maison_d'Alice(2010)DVB.mpgФормат : MPEG-PSРазмер файла : 793 МбайтПродолжительность : 49 м.Режим общего битрейта : ПеременныйОбщий поток : 2223 Кбит/сек
ВидеоИдентификатор : 224 (0xE0)Формат : MPEG VideoВерсия формата : Version 2Профиль формата : Main@MainПараметр BVOP формата : ДаПараметр матрицы формата : ВыборочнаяПараметр GOP формата : M=3, N=36Продолжительность : 49 м.Вид битрейта : ПеременныйБитрейт : 1987 Кбит/секШирина : 720 пикселейВысота : 576 пикселейСоотношение сторон : 4:3Частота кадров : 25,000 кадров/секСтандарт вещания : PALЦветовое пространство : YUVСубдискретизация насыщенности : 4:2:0Битовая глубина : 8 битТип развёртки : ЧересстрочнаяПорядок развёртки : Верхнее поле первоеМетод сжатия : С потерямиБит/(Пиксели*Кадры) : 0.192Временной код первого кадра : 00:00:00:00Оригинал временного кода : Group of pictures headerРазмер потока : 709 Мбайт (89%)
АудиоИдентификатор : 192 (0xC0)Формат : MPEG AudioВерсия формата : Version 1Профиль формата : Layer 2Продолжительность : 49 м.Вид битрейта : ПостоянныйБитрейт : 192 Кбит/секКаналы : 2 каналаЧастота : 48,0 КГцМетод сжатия : С потерямиРазмер потока : 68,5 Мбайт (9%)

Скриншоты


Резервные скриншоты


-1'242/1'223√[-4]
[teatrix.ru].t9114.torrent 
Торрент: Зарегистрирован [ 2015-10-18 20:31 ] · 939BB7C886F568A6E29EBDF9FAE68A53DACA369B

Скачать .torrent

Скачать

16 KB

Статус: проверено
Скачан: 1 раз
Размер: 793 MB
terms.php



Быстрый ответ

Имя:

      
Для отправки сообщений необходимо включить JavaScript
Показать сообщения:    

Текущее время: 06-Дек 13:16

Часовой пояс: UTC + 3


Вы можете начинать темы
Вы можете отвечать на сообщения
Вы не можете редактировать свои сообщения
Вы не можете удалять свои сообщения
Вы не можете голосовать в опросах
Вы не можете прикреплять файлы к сообщениям
Вы можете скачивать файлы