Провинциальные музеи России (3 выпуска) << Усадьба Шахматово >> (Мила Некрасова) [2013, Документальный цикл, познавательный, DVB]


Статистика раздачи [Обновить пиров]
Размер:  2.13 GB   |    Зарегистрирован:  1 год 1 месяц   |    Скачан:  0 раз

Полного источника не было: Никогда

 
   
 
 
 

[Цитировать]

Провинциальные музеи России
Дата/Год выпуска: 2013
Страна: Россия
Жанр: Документальный цикл, познавательный
Продолжительность: 00:25:55
Перевод: Не требуется
Русские субтитры: нет
Оригинальная аудиодорожка: русский
Режиссер: Мила Некрасова
Телеканал: Культура
Описание:
Цикл документальных фильмов «Провинциальные музеи России» — телевизионный проект, который с 1999 года реализуется студией Позитив-фильм при финансовой поддержке Федерального агентства по культуре и кинематографии и Федерального агентства по печати и массовым коммуникациям. На сегодняшний день это около 70-и 26-минутных фильмов, которые рассказывают о жизни российской глубинки. Фильмы проекта — это не показ экспозиций провинциальных музеев, а рассказ о жизни людей, о том, как музей интегрирован в жизнь социума, об интересных и уникальных городах России, многие из которых не известны не только иностранцам, но и россиянам.
География проекта охватывает пространство от Балтийского моря до Приморья. Художественным руководителем и автором идеи проекта является известный российский кинорежиссер Алла Сурикова.
В этом цикле можно увидеть не только «изнаночную» сторону жизни музеев, но и узнать об их современной культурной и общественной деятельности. В рамках цикла также затрагиваются и общечеловеческие проблемы, проецируется внутренняя жизнь музея на общество и наоборот.
За цикл документальных фильмов "Провинциальные музеи России" его художественный руководитель Алла Сурикова была удостоена премии Правительства Российской Федерации 2009 года в области культуры.

001. По родным местам Михаила Пришвина

Фильм рассказывает о Доме-музее М.М. Пришвина в деревне Дунино под Москвой и о других местах, связанных с именем этого писателя: "московском кабинете" в Орле, селе Хрущево - родине писателя. В городе Елец мы увидим гимназию, в которой учился Михаил Михайлович, откуда был исключен и куда потом вернулся преподавать. Познакомимся с потомком славного рода Стаховичей, которые были соседями Пришвиных. Город Сергиев Посад, где Пришвин прожил одиннадцать лет, связан с одним из самых драматичных эпизодов его жизни и жизни нашей страны - периоде уничтожения и расхищения русских святынь. Литературной основой фильма стали дневники писателя, которые он вел с 1905 года.

002. Музей истории танка Т-34

Танк Т-34 - легендарная тридцатьчетверка - символ победы, легенда Великой Отечественной войны. Он прошел всю войну и дошел до Берлина. "История танка Т-34" - уникальный в своем роде, не имеющий аналогов музей. Он появился на 37-м километре Дмитровского шоссе благодаря Ларисе Николаевне Васильевой, дочери одного из создателей танка, известной писательницы и поэтессы. Началось все с книги, которую она написала о своём отце Николае Алексеевиче Кучеренко, выдающемся конструкторе, принимавшем участие в разработке уникальной машины.

003. Усадьба Шахматово

На основе сохранившихся документов, воспоминаний очевидцев и стихов Александра Блока, сотрудники музея рассказывают об усадьбе Шахматово. Здесь, почти всю свою жизнь, в летние месяцы жил и работал поэт. Он погружался в атмосферу этого места, "растворялся" в природе, и именно она творила мир блоковских образов…
Доп. информация: Художественный руководитель, автор и продюсер цикла: Алла Сурикова.
качество: DVB
формат: MPG
Видео: MPEG-2 Video, 720x576 (4:3), 25 fps, 3 821 Kbps, 0.37 bit/pixel
Аудио: Russian: MPEG Audio, 48 kHz, 2 ch, 256 kbps

MediaInfo

GeneralComplete name : C:\001. По родным местам Михаила Пришвина.mpgFormat : MPEG-PSFile size : 771 MiBDuration : 25mn 55sOverall bit rate mode : VariableOverall bit rate : 4 160 Kbps
VideoID : 224 (0xE0)Format : MPEG VideoFormat version : Version 2Format profile : Main@MainFormat settings, BVOP : YesFormat settings, Matrix : CustomFormat settings, GOP : M=3, N=15Duration : 25mn 55sBit rate mode : VariableBit rate : 3 821 KbpsMaximum bit rate : 9 500 KbpsWidth : 720 pixelsHeight : 576 pixelsDisplay aspect ratio : 4:3Frame rate : 25.000 fpsStandard : PALColor space : YUVChroma subsampling : 4:2:0Bit depth : 8 bitsScan type : ProgressiveScan order : Bottom Field FirstCompression mode : LossyBits/(Pixel*Frame) : 0.369Time code of first frame : 00:00:00:00Time code source : Group of pictures headerStream size : 708 MiB (92%)
AudioID : 192 (0xC0)Format : MPEG AudioFormat version : Version 1Format profile : Layer 2Duration : 25mn 55sBit rate mode : ConstantBit rate : 256 KbpsChannel(s) : 2 channelsSampling rate : 48.0 KHzCompression mode : LossyStream size : 47.5 MiB (6%)

Скриншоты

[teatrix.ru].t9115.torrent 
Торрент: Зарегистрирован [ 2015-10-18 20:31 ] · F0E4B5C1F4F493708CBEC788DC42144378C45DEA

Скачать .torrent

Скачать

11 KB

Статус: проверено
Скачан: 0 раз
Размер: 2.13 GB
terms.php



Быстрый ответ

Имя:

      
Для отправки сообщений необходимо включить JavaScript
Показать сообщения:    

Текущее время: 06-Дек 11:15

Часовой пояс: UTC + 3


Вы можете начинать темы
Вы можете отвечать на сообщения
Вы не можете редактировать свои сообщения
Вы не можете удалять свои сообщения
Вы не можете голосовать в опросах
Вы не можете прикреплять файлы к сообщениям
Вы можете скачивать файлы