Секс и чувственность: искусство модерн (3 серии) / Sex and Sensibility: The Allure of Art Nouveau (Мэри Даунс / Mary Downes) [2012, документальный, история искусств, DVB] DVO (Ред Медиа)


Статистика раздачи [Обновить пиров]
Размер:  2.43 GB   |    Зарегистрирован:  1 год 1 месяц   |    Скачан:  3 раза

Полного источника не было: 20 дней

 
   
 
 
 

[Цитировать]

Секс и чувственность: искусство модерн
Sex and Sensibility: The Allure of Art Nouveau- Год выпуска: 2012
Страна: Великобритания
Жанр: документальный, история искусств
Продолжительность: 02:29:52 (00:48:47 + 00:51:00 + 00:50:05)
Перевод: Профессиональный (двухголосый закадровый) (ТПО "Ред Медиа")
Русские субтитры: нет
Режиссер: Мэри Даунс / Mary DownesОписание: К концу XIX века Европу захлестнула новая волна роскошного экстравагантного стиля. Фин-де-сьекль - гламурный, декаденствующий и все же яркий итог XIX века – стиль модерн. Модерн или ар-нуво возник из неуемной и темной энергии индустриального города. В век Дарвина и Фрейда его основой стали природа, чувственность и секс. Всего за десятилетие модерн распространился повсеместно.
Принятый на ура европейскими буржуа, он стал объектом подражания и был поставлен на поток. То, что начиналось как революция во имя истины, красоты и природы завершилось упадничеством и декадансом.
В этом цикле передач мы посетим великие города Европы, где ярко, но, увы, недолго сверкал талант творцов ар-нуво: таких как Эмиль Галле, Густав Климт и Артур Либерти. (из предисловия к фильму)
Доп. информация: "365 дней". 3-х-серийный документальный фильм.
Сэмпл: http://www.sendspace.com/file/tndedr
качество: DVB-S
формат: MPEG-PS
Видео: MPEG Video 2, 720x576@768x576 (4:3), 25 fps, ~2220 kbps avg, 0.214 bit/pixel
Аудио: 48 kHz, MPEG Audio 2, 2 ch, ~192.00 kbps avg

Список выпусков/серий

Эпизод 1: Париж / Paris
Эпизод 2: Города Британии / British Cities
Эпизод 3: Вена / Vienna

MediaInfo

Полное имя : H:\My Torrents\[apreder]Sex_and_Sensibility_The_Allure_of_Art_Nouveau\[apreder]Sex_and_Sensibility_The_Allure_of_Art_Nouveau_Paris(2012)DVB.mpgФормат : MPEG-PSРазмер файла : 859 МбайтПродолжительность : 48 м.Режим общего битрейта : ПеременныйОбщий поток : 2461 Кбит/сек
ВидеоИдентификатор : 224 (0xE0)Формат : MPEG VideoВерсия формата : Version 2Профиль формата : Main@MainПараметр BVOP формата : ДаПараметр матрицы формата : ВыборочнаяПараметр GOP формата : VariableПродолжительность : 48 м.Вид битрейта : ПеременныйБитрейт : 2220 Кбит/секШирина : 720 пикселейВысота : 576 пикселейСоотношение сторон : 4:3Частота кадров : 25,000 кадров/секСтандарт вещания : PALЦветовое пространство : YUVСубдискретизация насыщенности : 4:2:0Битовая глубина : 8 битТип развёртки : ЧересстрочнаяПорядок развёртки : Верхнее поле первоеМетод сжатия : С потерямиБит/(Пиксели*Кадры) : 0.214Временной код первого кадра : 00:00:00:00Оригинал временного кода : Group of pictures headerРазмер потока : 775 Мбайт (90%)
АудиоИдентификатор : 192 (0xC0)Формат : MPEG AudioВерсия формата : Version 1Профиль формата : Layer 2Продолжительность : 48 м.Вид битрейта : ПостоянныйБитрейт : 192 Кбит/секКаналы : 2 каналаЧастота : 48,0 КГцМетод сжатия : С потерямиРазмер потока : 67,0 Мбайт (8%)

Скриншоты


Резервные скриншоты



-

Внимание! Раздача ведётся путём добавления новых выпусков

Внимание! Раздача ведётся путём добавления новых выпусков; при каждом добавлении создаётся новый торрент. Чтобы начать докачку нового выпуска, пользователям необходимо сделать следующее:
(1) остановить скачивание,
(2) удалить старый торрент у себя из клиента (старые серии удалять не надо),
(3) скачать новый торрент и запустить его у себя в клиенте вместо старого, при этом указать клиенту путь в старую папку куда и должно происходить скачивание новых выпусков.
Ваш клиент при этом должен произвести хеширование (проверку) старой папки (если не производит сам - помогите ему сделать это). В результате он будет докачивать только те выпуски, которых у Вас ещё нет. Старые выпуски при этом не удаляются, а продолжают раздаваться!
Eсли Вы уже удалили старые выпуски, то предотвратить их повторную закачку можно, сняв галочки в соответствующих местах при запуске нового торрента. По возможности, желательно не удалять старые выпуски как можно дольше, чтобы релизёр не только продолжал раздавать старые выпуски, но и смог сконцентрироваться на новых.
-1'208/1'189√
[teatrix.ru].t9116.torrent 
Торрент: Зарегистрирован [ 2015-10-18 20:31 ] · C62CEDA65C4ACEDCA1373DE1ECC455354B2BB5E9

Скачать .torrent

Скачать

13 KB

Статус: проверено
Скачан: 3 раз
Размер: 2.43 GB
terms.php



Быстрый ответ

Имя:

      
Для отправки сообщений необходимо включить JavaScript
Показать сообщения:    

Текущее время: 04-Дек 17:19

Часовой пояс: UTC + 3


Вы можете начинать темы
Вы можете отвечать на сообщения
Вы не можете редактировать свои сообщения
Вы не можете удалять свои сообщения
Вы не можете голосовать в опросах
Вы не можете прикреплять файлы к сообщениям
Вы можете скачивать файлы