Секс и чувственность: искусство модерн / Sex and Sensibility: The Allure of Art Nouveau (Мэри Даунс / Mary Downes) [2012, Документальный, история искусств, SATRip] (1-3 серии из 3) ВВС


Статистика раздачи [Обновить пиров]
Размер:  1.99 GB   |    Зарегистрирован:  1 год 1 месяц   |    Скачан:  1 раз

Полного источника не было: 7 месяцев 8 дней

 
   
 
 
 

[Цитировать]

Секс и чувственность: искусство модерн / Sex and Sensibility: The Allure of Art Nouveau
Дата/Год выпуска: 2012
Страна: Великобритания
Жанр: Документальный, история искусств
Продолжительность: 3 x ~ 00:50:00
Перевод: Профессиональный (двухголосый закадровый)
Доп. инфо о переводе: ТПО "Ред Медиа"
Русские субтитры: нет
Режиссер: Мэри Даунс / Mary Downes
Описание: К концу XIX века Европу захлестнула новая волна роскошного экстравагантного стиля. Фин-де-сьекль - гламурный, декаденствующий и все же яркий итог XIX века – стиль модерн. Модерн или ар-нуво возник из неуемной и темной энергии индустриального города. В век Дарвина и Фрейда его основой стали природа, чувственность и секс. Всего за десятилетие модерн распространился повсеместно. Принятый на ура европейскими буржуа, он стал объектом подражания и был поставлен на поток. То, что начиналось как революция во имя истины, красоты и природы завершилось упадничеством и декадансом. В этом цикле передач мы посетим великие города Европы, где ярко, но, увы, недолго сверкал талант творцов ар-нуво: таких как Эмиль Галле, Густав Климт и Артур Либерти...

качество: SATRip
формат: AVI
Видео: MPEG-4 Visual, XviD, 1700 Кбит/сек, 25,000 кадров/сек, 720 х 400 (16:9), 0.236 бит/пиксель
Аудио: Audio Coding 3, 48,0 КГц, 192 Кбит/сек, 2 канала

Дополнительная информация:
  • Релиз группа: R. G. BitTracker
  • Автор Rip'а: skorpionN

Список выпусков/серий

01. Париж / Paris
02. Города британии / British Cities
03. Вена / Vienna

MediaInfo

ОбщееПолное имя : E:\torrent\Sex and Sensibility\01_Paris.aviФормат : AVIФормат/Информация : Audio Video InterleaveРазмер файла : 664 МбайтПродолжительность : 48 м.Общий поток : 1901 Кбит/секПрограмма кодирования : VirtualDubMod 1.5.10.3 | www.virtualdub-fr.org || (build 2550/release)Библиотека кодирования : VirtualDubMod build 2550/release
ВидеоИдентификатор : 0Формат : MPEG-4 VisualПрофиль формата : Advanced Simple@L5Параметр BVOP формата : 2Параметр QPel формата : НетПараметр GMC формата : Без точки переходаПараметр матрицы формата : Default (H.263)Идентификатор кодека : XVIDИдентификатор кодека/Подсказка : XviDПродолжительность : 48 м.Битрейт : 1700 Кбит/секШирина : 720 пикселейВысота : 400 пикселейСоотношение сторон : 16:9Частота кадров : 25,000 кадров/секЦветовое пространство : YUVСубдискретизация насыщенности : 4:2:0Битовая глубина : 8 битТип развёртки : ПрогрессивнаяМетод сжатия : С потерямиБит/(Пиксели*Кадры) : 0.236Размер потока : 594 Мбайт (89%)Библиотека кодирования : XviD 1.2.1 (UTC 2008-12-04)
АудиоИдентификатор : 1Формат : AC-3Формат/Информация : Audio Coding 3Расширение режима : CM (complete main)Параметр Endianness формата : BigИдентификатор кодека : 2000Продолжительность : 48 м.Вид битрейта : ПостоянныйБитрейт : 192 Кбит/секКаналы : 2 каналаРасположение каналов : Front: L RЧастота : 48,0 КГцБитовая глубина : 16 битМетод сжатия : С потерямиРазмер потока : 67,0 Мбайт (10%)Выравнивание : Разделение по промежуткамПродолжительность промежутка : 40 мс. (1,00 видеокадр)Время предзагрузки промежутка : 500 мс.

Скриншоты

[teatrix.ru].t9117.torrent 
Торрент: Зарегистрирован [ 2015-10-18 20:31 ] · 1F8F29AA820FFFFE4A3C0977B92534D74D25C4DE

Скачать .torrent

Скачать

21 KB

Статус: проверено
Скачан: 1 раз
Размер: 1.99 GB
terms.php



Быстрый ответ

Имя:

      
Для отправки сообщений необходимо включить JavaScript
Показать сообщения:    

Текущее время: 08-Дек 23:06

Часовой пояс: UTC + 3


Вы можете начинать темы
Вы можете отвечать на сообщения
Вы не можете редактировать свои сообщения
Вы не можете удалять свои сообщения
Вы не можете голосовать в опросах
Вы не можете прикреплять файлы к сообщениям
Вы можете скачивать файлы