Мост над бездной (18 выпусков) (Автор и ведущая Паола Волкова) [2012, Живопись, история, искусство, SATRip]


Статистика раздачи [Обновить пиров]
Размер:  6.26 GB   |    Зарегистрирован:  1 год 1 месяц   |    Скачан:  0 раз
Сидов:  2  [  0 KB/s  ]   Личеров:  1  [  0 KB/s  ]   Подробная статистика пиров
 
   
 
 
 

[Цитировать]

Мост над бездной (18 выпусков)
Год выпуска: 2012 - 2014
Страна: Россия
Жанр: Живопись, история, искусство
Продолжительность: 18 х 00:25:00
Перевод: Не требуется
Русские субтитры: нет

Режиссер: Автор и ведущая Паола Волкова
Описание: "Идея такой телепрограммы возникла достаточно неожиданно, – рассказывала Паола Дмитриевна. – Я готовила многотомную научную работу об истории европейского искусства. У книги точно такое же название – "Мост над бездной". В основу легли лекции, которые я много лет читала своим студентам на Высших курсах сценаристов и режиссеров. Но так получилось, что у одного из моих студентов, Андрея Зайцева, возникла мысль превратить этот курс лекций в телепрограмму, выпустить беседы в эфир. Название и для книги, и для программы было выбрано неслучайно, ведь образ моста – это образ мировой культуры, без которой мы бы не состоялись как цивилизация".
Доп. информация:
11 – 14 ноября 2013 года на телеканале "Россия К" – премьерные выпуски цикла "Мост над бездной", снятые ещё при жизни искусствоведа. Паола Дмитриевна Волкова ушла из жизни 15 марта 2013 года. В новых выпусках предметами бесед стали полотна испанского художника Эль Греко, иконописца Феофана Грека, импрессиониста Ренуара и передвижника Николая Ярошенко, а также итальянского живописца Рафаэля Санти.
Релиз:
Авторы релиза: mikloeff, marfa12, lesik689
Сэмпл: http://multi-up.com/925472
16.03.2014 года добавлен 18 выпуск передачи: Мост над бездной. Клод Моне. Впечатление. Восход солнца.
Выпуск посвящён художникам-импрессионистам и, в частности, Клоду Моне и его картине "Впечатление. Восход солнца" ("Impression, soleil levant"), которую он впервые показал в 1884 году. Картина стала вехой, а её название ("Impression") стало именем целого направления в искусстве. Моне любил пейзажи, он любил писать одни и те же мотивы при разном свете, в разное время суток. И, если раньше главными героями живописи были человек и человеческие отношения, то у импрессионистов главным героем стал свет.
Это последняя запись Паолы Дмитриевны Волковой. 15 марта 2013 года её не стало.

качество: SATRip
формат: AVI
Видео: XviD MPEG-4, 704x528(704х400), 25.000 fps, 1789 kbps, 0.193 bit/pixel
Аудио: 48 kHz, AC-3, 2 ch, 128.00 kbps avg - Русский

Список выпусков/серий

1. Мост над бездной. Джотто. 'Поцелуй Иуды'
2. Мост над бездной. Андрей Рублев. 'Троица'
3. Мост над бездной. Сандро Боттичелли. 'Весна'
4. Мост над бездной. Веласкес. 'Менины'
5. Мост над бездной. Микеланджело. Гробница Медичи
6. Мост над бездной. Леонардо да Винчи. Святая Анна с Младенцем Христом
7. Мост над бездной. Иероним Босх. Корабль дураков
8. Мост над бездной. Альбрехт Дюрер. Меланхолия
9. Мост над бездной. Казимир Малевич
10. Мост над бездной. Пабло Пикассо. Герника
11. Мост над бездной. Винсент Ван Гог
12. Мост над бездной. Рембрандт ван Рейн. Возвращение блудного сына
13. Мост над бездной. Эль Греко
14. Мост над бездной. Феофан Грек
15. Мост над бездной. Рафаэль Санти
16. Мост над бездной. Ренуар – Ярошенко
17. Мост над бездной. Сальвадор Дали. Тайная вечеря
18. Мост над бездной. Клод Моне. Впечатление. Восход солнца

MediaInfo

Формат : AVI
Формат/Информация : Audio Video Interleave
Размер файла : 361 Мбайт
Продолжительность : 26 м.
Общий поток : 1937 Кбит/сек
Библиотека кодирования : VirtualDub build 32842/release
Видео
Идентификатор : 0
Формат : MPEG-4 Visual
Параметр BVOP формата : Нет
Параметр QPel формата : Нет
Параметр GMC формата : Без точки перехода
Параметр матрицы формата : Default (H.263)
Идентификатор кодека : DX50
Идентификатор кодека/Подсказка : DivX 5
Продолжительность : 26 м.
Битрейт : 1799 Кбит/сек
Ширина : 704 пикселя
Высота : 400 пикселей
Соотношение сторон : 16:9
Частота кадров : 25,000 кадров/сек
Цветовое пространство : YUV
Субдискретизация насыщенности : 4:2:0
Битовая глубина : 8 бит
Тип развёртки : Прогрессивная
Метод сжатия : С потерями
Бит/(Пиксели*Кадры) : 0.256
Размер потока : 335 Мбайт (93%)
Библиотека кодирования : DivX 5.2.1 (WaffleDay) (UTC 2004-09-08)
Аудио
Идентификатор : 1
Формат : MPEG Audio
Версия формата : Version 1
Профиль формата : Layer 3
Режим : Joint stereo
Расширение режима : MS Stereo
Идентификатор кодека : 55
Идентификатор кодека/Подсказка : MP3
Продолжительность : 26 м.
Вид битрейта : Постоянный
Битрейт : 128 Кбит/сек
Каналы : 2 канала
Частота : 48,0 КГц
Метод сжатия : С потерями
Размер потока : 23,8 Мбайт (7%)
Выравнивание : Разделение по промежуткам
Продолжительность промежутка : 40 мс. (1,00 видеокадр)
Время предзагрузки промежутка : 500 мс.
[teatrix.ru].t9118.torrent 
Торрент: Зарегистрирован [ 2015-10-18 20:31 ] · FC49785F6829C894DFA6F4034508AB415B4EFAB8

Скачать .torrent

Скачать

34 KB

Статус: проверено
Скачан: 0 раз
Размер: 6.26 GB
terms.php



Быстрый ответ

Имя:

      
Для отправки сообщений необходимо включить JavaScript
Показать сообщения:    

Текущее время: 08-Дек 07:08

Часовой пояс: UTC + 3


Вы можете начинать темы
Вы можете отвечать на сообщения
Вы не можете редактировать свои сообщения
Вы не можете удалять свои сообщения
Вы не можете голосовать в опросах
Вы не можете прикреплять файлы к сообщениям
Вы можете скачивать файлы