Бомба / Bomb It (Джон Рейс / Jon Reiss) [2007, Документальный, SATRip]


Статистика раздачи [Обновить пиров]
Размер:  662 MB   |    Зарегистрирован:  1 год 1 месяц   |    Скачан:  0 раз

Полного источника не было: Никогда

 
   
 
 
 

[Цитировать]

Бомба / Bomb It
Дата/Год выпуска: 2007
Страна: США
Жанр: Документальный
Продолжительность: 01:29:13
Перевод: Профессиональный (двухголосый закадровый)
Русские субтитры: нет
Режиссер: Джон Рейс / Jon Reiss

Описание: Бодрый документальный фильм о граффити в истории искусства - от наскальной живописи первобытный предков до появления современной граффити-сцены. Десятки интервью с признаниями уличных художников о том, зачем они это делают, о границе между вандализмом и искусством и о канонах граффити дают самое полное представление о том, кто эти люди, сделавшие улицы и промзоны новой территорией искусства
Сэмпл: http://sendfile.su/954268
качество: SATRip
формат: AVI
Видео: XviD, 656x368, 16:9, 900 kbps, 25 fps
Аудио: MP3, 128 kbps, 48 kHz, 2 ch

MediaInfo

ОбщееПолное имя : D:\Раздачи\Бомба.2007.XviD.SATRip.aviФормат : AVIФормат/Информация : Audio Video InterleaveРазмер файла : 662 МбайтПродолжительность : 1 ч. 29 м.Общий поток : 1037 Кбит/секПрограмма кодирования : VirtualDubMod 1.5.10.3 | www.virtualdub-fr.org || (build 2550/release)Библиотека кодирования : VirtualDubMod build 2550/release
ВидеоИдентификатор : 0Формат : MPEG-4 VisualПрофиль формата : Advanced Simple@L5Параметр BVOP формата : 2Параметр QPel формата : НетПараметр GMC формата : Без точки переходаПараметр матрицы формата : Default (H.263)Идентификатор кодека : XVIDИдентификатор кодека/Подсказка : XviDПродолжительность : 1 ч. 29 м.Битрейт : 900 Кбит/секШирина : 656 пикселейВысота : 368 пикселейСоотношение сторон : 16:9Частота кадров : 25,000 кадров/секЦветовое пространство : YUVСубдискретизация насыщенности : 4:2:0Битовая глубина : 8 битТип развёртки : ПрогрессивнаяМетод сжатия : С потерямиБит/(Пиксели*Кадры) : 0.149Размер потока : 574 Мбайт (87%)Библиотека кодирования : XviD 1.2.1 (UTC 2008-12-04)
АудиоИдентификатор : 1Формат : MPEG AudioВерсия формата : Version 1Профиль формата : Layer 3Идентификатор кодека : 55Идентификатор кодека/Подсказка : MP3Продолжительность : 1 ч. 29 м.Вид битрейта : ПостоянныйБитрейт : 128 Кбит/секКаналы : 2 каналаЧастота : 48,0 КГцМетод сжатия : С потерямиРазмер потока : 81,7 Мбайт (12%)Выравнивание : Соединение по промежуткамПродолжительность промежутка : 40 мс. (1,00 видеокадр)Время предзагрузки промежутка : 504 мс.Библиотека кодирования : LAME3.99rНастройки программы : -m s -V 4 -q 2 -lowpass 17 -b 128

Скриншоты

[teatrix.ru].t9119.torrent 
Торрент: Зарегистрирован [ 2015-10-18 20:31 ] · B97B519F75EF39360E06946934E377089595FDD6

Скачать .torrent

Скачать

14 KB

Статус: проверено
Скачан: 0 раз
Размер: 662 MB
terms.php



Быстрый ответ

Имя:

      
Для отправки сообщений необходимо включить JavaScript
Показать сообщения:    

Текущее время: 10-Дек 17:48

Часовой пояс: UTC + 3


Вы можете начинать темы
Вы можете отвечать на сообщения
Вы не можете редактировать свои сообщения
Вы не можете удалять свои сообщения
Вы не можете голосовать в опросах
Вы не можете прикреплять файлы к сообщениям
Вы можете скачивать файлы