Херлуф Бидструп в Москве (Главная редакция литературно-художественных программ ЦТ) [1984, документальный, сатира, искусство, DVB]


Статистика раздачи [Обновить пиров]
Размер:  724 MB   |    Зарегистрирован:  1 год 1 месяц   |    Скачан:  0 раз

Полного источника не было: Никогда

 
   
 
 
 

[Цитировать]

Херлуф Бидструп в Москве- Год выпуска: 1984
Страна: СССР
Жанр: документальный, сатира, искусство
Продолжительность: 00:19:51
Перевод: Не требуется
Русские субтитры: нетРежиссер: Главная редакция литературно-художественных программ ЦТ
Описание: Документальный фильм о визите датского художника-карикатуриста Херлуфа Бидструпа в Москву. О творчестве Бидструпа рассказывает народный художник СССР Борис Ефимов.
Херлуф Бидструп (1912-1988) - один из наиболее известных карикатуристов нашего времени. Х. Бидструп учился живописи в копенгагентской Академии Художеств, но широкую известность и признание он завоевал своими замечательными рисунками.
Он рисовал не только карикатуры, но и политические карикатуры, и путевые заметки. Более всего он известен нам своими комиксами - небольшими смешными рассказами в картинках. Тематика рисунков Х. Бидструпа разная - это бытовые сценки и случаи на улице, на отдыхе, в транспорте, а также и различные жизненные ситуации. Если мы внимательно рассмотрим эти рисунки, то увидим, что за юмором в них сплошь и рядом скрывается глубокий подтекст.
Во времена бывшего СССР коммунистическая пропаганда подняла Херлуфа Бидструпа на невероятную высоту, потому что значительная часть его работ была посвящена борьбе рабочих за свои права, т.е. борьбе с мировым империализмом. В 1964 году Херлуф Бидструп стал Лауреатом Международной Ленинской премии "За укрепление мира между народами". Он был членом Коммунистической партии Дании.
Доп. информация: "Ностальгия"
Сэмпл: http://www.sendspace.com/file/uxug0h
качество: DVB-S
формат: MPEG-PS
Видео: MPEG Video 2, 720x576@768x576 (4:3), 25 fps, ~4800 kbps avg, 0.463 bit/pixel
Аудио: 48 kHz, MPEG Audio 2, 2 ch, ~192.00 kbps avg

MediaInfo

Полное имя : H:\My Torrents\[apreder]Herluf_Bidstrup_in_Moscow(1984)DVB.mpgФормат : MPEG-PSРазмер файла : 724 МбайтПродолжительность : 19 м.Режим общего битрейта : ПеременныйОбщий поток : 5094 Кбит/сек
ВидеоИдентификатор : 224 (0xE0)Формат : MPEG VideoВерсия формата : Version 2Профиль формата : Main@MainПараметр BVOP формата : ДаПараметр матрицы формата : ВыборочнаяПараметр GOP формата : VariableПродолжительность : 19 м.Вид битрейта : ПеременныйБитрейт : 4800 Кбит/секШирина : 720 пикселейВысота : 576 пикселейСоотношение сторон : 4:3Частота кадров : 25,000 кадров/секСтандарт вещания : PALЦветовое пространство : YUVСубдискретизация насыщенности : 4:2:0Битовая глубина : 8 битТип развёртки : ЧересстрочнаяПорядок развёртки : Верхнее поле первоеМетод сжатия : С потерямиБит/(Пиксели*Кадры) : 0.463Временной код первого кадра : 00:00:00:00Оригинал временного кода : Group of pictures headerРазмер потока : 683 Мбайт (94%)
АудиоИдентификатор : 192 (0xC0)Формат : MPEG AudioВерсия формата : Version 1Профиль формата : Layer 2Продолжительность : 19 м.Вид битрейта : ПостоянныйБитрейт : 192 Кбит/секКаналы : 2 каналаЧастота : 48,0 КГцМетод сжатия : С потерямиРазмер потока : 27,3 Мбайт (4%)

Скриншоты

Резервные скриншоты

-1'212/1'193√[-4]
[teatrix.ru].t9120.torrent 
Торрент: Зарегистрирован [ 2015-10-18 20:31 ] · 13288CE6BBDF83453D3477ED9E3DB0A43785155B

Скачать .torrent

Скачать

15 KB

Статус: проверено
Скачан: 0 раз
Размер: 724 MB
terms.php



Быстрый ответ

Имя:

      
Для отправки сообщений необходимо включить JavaScript
Показать сообщения:    

Текущее время: 05-Дек 05:30

Часовой пояс: UTC + 3


Вы можете начинать темы
Вы можете отвечать на сообщения
Вы не можете редактировать свои сообщения
Вы не можете удалять свои сообщения
Вы не можете голосовать в опросах
Вы не можете прикреплять файлы к сообщениям
Вы можете скачивать файлы