Мой Пушкинский (52 серии) Авторская программа Натальи Поповой (Инга Монаенкова) [2012 - 2014, Искусство, живопись, документальный, SATRip]


Статистика раздачи [Обновить пиров]
Размер:  16.96 GB   |    Зарегистрирован:  1 год 1 месяц   |    Скачан:  0 раз

Полного источника не было: Никогда

 
   
 
 
 

[Цитировать]

Мой Пушкинский (52 серии) Авторская программа Натальи Поповой
Год выпуска: 2012 - 2013
Страна: Россия
Жанр: Искусство, живопись, документальный
Продолжительность: 52 х ~00:26:00
Перевод: Не требуется
Русские субтитры: нет
Режиссер: Инга Монаенкова

Описание: «Мой Пушкинский» - авторская программа Натальи Поповой представляет собой целый исследовательский искусствоведческий проект о собрании Государственного музея изобразительных искусств им. А.С. Пушкина. Свою трактовку произведений искусства представляют знаменитые писатели, политики, деятели культуры. «Мой Пушкинский» — это телеэкскурсии в музей, погружение в мир художника и знакомство с шедеврами мирового искусства.
Доп. информация:
Список раздаваемого материала и краткое описание серий.

Список серий

1. Серый Коро (2011)
2. Коронованный простолюдин Кранах
3. Цивилизованный дикарь Гоген
4. Причудливый гений Рембрандт
5. Недосказанный Терборх
6. Брейгель сын Брейгеля
7. Легкая кисть сэра Ван Дейка
8. Гениальные выходки Гварди (2011)
9. Формула счастья чудака Ренуара
10. Песня Моне
11. Странник Маньяско (2011)
12. Архипелаг по имени Сезанн.
13. Наблюдатель Тенирс
14. Тишайший из бунтарей Сислей (2012)
15. Философский универсум Рейсдала (2012)
16. Укромная обыденность де Хоха
17. Наивная улыбка Руссо
18. Посторонний Шарден (2012)
19. Паруса и вызовы Синьяка
20. Белая ворона импрессионизма Дега
21. Пламя Гойи
22. Машина времени Беллотто
23. Руки Микеланджело
24. Неправильный Боттичелли (2011)
25. Доля Милле (2012)
26. Голоса земли Писсарро (2012)
27. Страна Ватто (2012)
28. Свобода Курбе (2012)
29. Жизнь глазами Аверкампа (2012)
30. Счастливчик Робер (2012)
31. Восставший Мане (2013)
32. Печать Донателло (2012)
33. Математика Бёклина (2013)
34. Последнее совершенство Энгра (2013)
35. Прецедент Эль-Греко (2013)
36. Священный покой Сурбарана (2013)
37. Врачующая сила Веронезе (2013)
38. Мудрость Мурильо (2013)
39. Пиршества Снейдерса (2013)
40. Узник собственного гения Ван Гог (2011)
41. Дороги Хиросигэ (2013)
42. Нищий скупец Перуджино (2013)
43. Свет Лоррена (2013)
44. Город Каналетто (2013)
45. Очарованный странник Альма-Тадема (2013)
46. Осень Тициана (2013)
47. Лев в клетке Мункачи. (2013)
48. Уроки добродетели Грёза (2013)
49. Ноша Домье (2013)
50. Парадоксы Фридриха. (2013)
51. Выдумщик Досси
52. Великий ремесленник Гудон.

MediaInfo

Формат : AVI
Формат/Информация : Audio Video Interleave
Размер файла : 211 Мбайт
Продолжительность : 26 м.
Общий поток : 1098 Кбит/сек
Библиотека кодирования : VirtualDub build 32842/release
Видео
Идентификатор : 0
Формат : MPEG-4 Visual
Профиль формата : Advanced Simple@L5
Параметр BVOP формата : 2
Параметр QPel формата : Нет
Параметр GMC формата : Без точки перехода
Параметр матрицы формата : Default (MPEG)
Идентификатор кодека : XVID
Идентификатор кодека/Подсказка : XviD
Продолжительность : 26 м.
Битрейт : 1024 Кбит/сек
Ширина : 720 пикселей
Высота : 512 пикселей
Соотношение сторон : 1,406
Частота кадров : 25,000 кадров/сек
Цветовое пространство : YUV
Субдискретизация насыщенности : 4:2:0
Битовая глубина : 8 бит
Тип развёртки : Прогрессивная
Метод сжатия : С потерями
Бит/(Пиксели*Кадры) : 0.111
Размер потока : 197 Мбайт (93%)
Библиотека кодирования : XviD 64
Аудио
Идентификатор : 1
Формат : MPEG Audio
Версия формата : Version 1
Профиль формата : Layer 3
Режим : Joint stereo
Расширение режима : MS Stereo
Идентификатор кодека : 55
Идентификатор кодека/Подсказка : MP3
Продолжительность : 26 м.
Вид битрейта : Постоянный
Битрейт : 64,0 Кбит/сек
Каналы : 2 канала
Частота : 44,1 КГц
Метод сжатия : С потерями
Размер потока : 12,3 Мбайт (6%)
Выравнивание : Разделение по промежуткам
Продолжительность промежутка : 40 мс. (1,00 видеокадр)
Время предзагрузки промежутка : 500 мс.

Скрины

[teatrix.ru].t9121.torrent 
Торрент: Зарегистрирован [ 2015-10-18 20:31 ] · 49B6945998A7E87BD34691CE521F7F4EC5E76EB7

Скачать .torrent

Скачать

90 KB

Статус: проверено
Скачан: 0 раз
Размер: 16.96 GB
terms.php



Быстрый ответ

Имя:

      
Для отправки сообщений необходимо включить JavaScript
Показать сообщения:    

Текущее время: 08-Дек 17:23

Часовой пояс: UTC + 3


Вы можете начинать темы
Вы можете отвечать на сообщения
Вы не можете редактировать свои сообщения
Вы не можете удалять свои сообщения
Вы не можете голосовать в опросах
Вы не можете прикреплять файлы к сообщениям
Вы можете скачивать файлы