Дега. Обнажённая натура / Degas, le corps mis a nu / The Body Stripped Bare (Сандра Погам / Sandra Paugam) [2012, документальный, история искусств, DVB] DVO (Ред Медиа)


Статистика раздачи [Обновить пиров]
Размер:  668 MB   |    Зарегистрирован:  1 год 1 месяц   |    Скачан:  2 раза

Полного источника не было: 1 месяц 9 дней

 
   
 
 
 

[Цитировать]

Дега. Обнажённая натура
Degas, le corps mis à nu- Год выпуска: 2012
Страна: Франция
Жанр: документальный, история искусств
Продолжительность: 00:52:27
Перевод: Профессиональный (двухголосый закадровый) (ТПО "Ред Медиа")
Русские субтитры: нет
Режиссер: Сандра Погам / Sandra Paugam
Описание: Фильм снят по материалам выставки "Дега и обнаженная натура" в музее д'Орсе, проходившей с 13 марта по 1 июля 2012 года.
Эдгар Дега (1834-1917) – великий французский мастер, использующий уникальный метод импрессионизма, известен сериями нетипичных сюжетов и фигурных композиций, среди которых цикл работ, посвященный обнаженной натуре. Эдгар Дега совмещает в своих работах "вульгарность" натуры и тонкую гармонию, картины этого цикла мастер писал преимущественно пастелью – одним из своих любимых живописных материалов.
Академические художники, не желая жертвовать знаниями, почерпнутыми на занятиях в морге, тщательно копировали натуру, создавая грациозные, но безжизненные каркасы, облепленные мускулами и обтянутые кожей. Дега же, изображая женщин неуклюже выходящими из ванной или вытирающими ступни, не инсценирует, а портретизирует действительность с присущей ему прямотой. Но хуже всего, что Дега рисовал с натуры, а натура – это мы. Этого-то современники ему и не простили, окрестив женоненавистником.
Доп. информация: "365 дней"
Сэмпл: http://www.sendspace.com/file/l8l5i1
качество: DVB-S
формат: MPEG-PS
Видео: MPEG Video 2, 720x576@768x576 (4:3), 25 fps, ~1551 kbps avg, 0.150 bit/pixel
Аудио: 48 kHz, MPEG Audio 2, 2 ch, ~192.00 kbps avg

MediaInfo

Полное имя : H:\My Torrents\[apreder]Degas_le_corps_mis_a_nu(2012)DVB.mpgФормат : MPEG-PSРазмер файла : 668 МбайтПродолжительность : 52 м.Режим общего битрейта : ПеременныйОбщий поток : 1779 Кбит/сек
ВидеоИдентификатор : 224 (0xE0)Формат : MPEG VideoВерсия формата : Version 2Профиль формата : Main@MainПараметр BVOP формата : ДаПараметр матрицы формата : ВыборочнаяПараметр GOP формата : M=3, N=36Продолжительность : 52 м.Вид битрейта : ПеременныйБитрейт : 1551 Кбит/секШирина : 720 пикселейВысота : 576 пикселейСоотношение сторон : 4:3Частота кадров : 25,000 кадров/секСтандарт вещания : PALЦветовое пространство : YUVСубдискретизация насыщенности : 4:2:0Битовая глубина : 8 битТип развёртки : ЧересстрочнаяПорядок развёртки : Верхнее поле первоеМетод сжатия : С потерямиБит/(Пиксели*Кадры) : 0.150Временной код первого кадра : 00:00:00:00Оригинал временного кода : Group of pictures headerРазмер потока : 582 Мбайт (87%)
АудиоИдентификатор : 192 (0xC0)Формат : MPEG AudioВерсия формата : Version 1Профиль формата : Layer 2Продолжительность : 52 м.Вид битрейта : ПостоянныйБитрейт : 192 Кбит/секКаналы : 2 каналаЧастота : 48,0 КГцМетод сжатия : С потерямиРазмер потока : 72,1 Мбайт (11%)

Скриншоты


Резервные скриншоты


-1'201/1'182√[-4]
[teatrix.ru].t9122.torrent 
Торрент: Зарегистрирован [ 2015-10-18 20:31 ] · B9072D9ACDD75AB93318E68D19AEC909CE7F4458

Скачать .torrent

Скачать

14 KB

Статус: проверено
Скачан: 2 раз
Размер: 668 MB
terms.php



Быстрый ответ

Имя:

      
Для отправки сообщений необходимо включить JavaScript
Показать сообщения:    

Текущее время: 11-Дек 11:08

Часовой пояс: UTC + 3


Вы можете начинать темы
Вы можете отвечать на сообщения
Вы не можете редактировать свои сообщения
Вы не можете удалять свои сообщения
Вы не можете голосовать в опросах
Вы не можете прикреплять файлы к сообщениям
Вы можете скачивать файлы