Искатели - "Тайна захоронения Андрея Рублева" [2014, документальный, DVB-AVC]


Статистика раздачи [Обновить пиров]
Размер:  670 MB   |    Зарегистрирован:  1 год 1 месяц   |    Скачан:  0 раз

Полного источника не было: Никогда

 
   
 
 
 

[Цитировать]

Искатели - "Тайна захоронения Андрея Рублева".
Год выпуска: 2014
Страна: Россия
Жанр: Документальный
Продолжительность: 00:43:51
Перевод: Не требуется

Описание

Цикл познавательно-приключенческих программ, посвященный общественно значимым событиям истории России и зарубежья, а также частным историям известных людей, которые оставили потомкам много вопросов и тайн. Жанр цикла – историческое расследование, "телевизионные приключения для взрослых". Чтобы разгадать очередную тайну, "Искатели" исследуют как летописные источники, так и находки, обнаруженные непосредственно на месте исторических событий .
В выпуске: Летом 2010 года руководство Музея древнерусской культуры имени Андрея Рублева установило надгробие на могиле великого иконописца. Событие, приуроченное к 650-летию рождения художника, сопровождалось скандалом в ученом мире. Одни утверждали, что юбилейная дата выдумана, другие называли строительные работы на могиле кощунством, третьи заявляли, что мощей Андрея Рублева нет и никогда не было на территории монастыря. Почему это имя окружено таким количеством мифов и недомолвок? Кому оно принадлежало, когда умер этот человек и где он, в действительности, захоронен?
Качество видео: DVB
Формат видео: MPEG-TS
Видео: MPEG4 Video (H264), 720x576@785x576 (4:3), анаморф, 25 fps, 1900 kbps
Аудио: MPEG Audio, 2 сh, 48 kHz, 128 kbps
Трансляция спутникового канала:

MediaInfo

F:\Искатели. Тайна захоронения Андрея Рублева. (2014)_DVB by SLuMeP.ts
General #1
ID : 1 (0x1)
Complete name : F:\Искатели. Тайна захоронения Андрея Рублева. (2014)_DVB by SLuMeP.ts
Format : MPEG-TS
File size : 670 MiB
Duration : 43mn 51s
Overall bit rate mode : Variable
Overall bit rate : 2 135 Kbps
Video #1161
ID : 1161 (0x489)
Menu ID : 1 (0x1)
Format : AVC
Format/Info : Advanced Video Codec
Format profile : Main@L3.0
Format settings, CABAC : Yes
Format settings, ReFrames : 3 frames
Format settings, GOP : M=4, N=24
Codec ID : 27
Duration : 43mn 51s
Bit rate : 1 900 Kbps
Width : 720 pixels
Height : 576 pixels
Display aspect ratio : 4:3
Frame rate : 25.000 fps
Standard : Component
Color space : YUV
Chroma subsampling : 4:2:0
Bit depth : 8 bits
Scan type : Interlaced
Scan order : Top Field First
Bits/(Pixel*Frame) : 0.183
Stream size : 596 MiB (89%)
Color primaries : BT.601 PAL
Transfer characteristics : BT.470 System B, BT.470 System G
Matrix coefficients : BT.601
Audio #1162
ID : 1162 (0x48A)
Menu ID : 1 (0x1)
Format : MPEG Audio
Format version : Version 1
Format profile : Layer 2
Codec ID : 3
Duration : 43mn 51s
Bit rate mode : Constant
Bit rate : 128 Kbps
Channel(s) : 2 channels
Sampling rate : 48.0 KHz
Compression mode : Lossy
Delay relative to video : -40ms
Stream size : 40.2 MiB (6%)
Language : English
Text #1163-758
ID : 1163 (0x48B)-758
Menu ID : 1 (0x1)
Format : Teletext Subtitle
Language : Russian
Menu #1160
ID : 1160 (0x488)
Menu ID : 1 (0x1)
Duration : 43mn 51s
List : 1161 (0x489) (AVC) / 1162 (0x48A) (MPEG Audio, English) / 1163 (0x48B) ()
Language : / English

Скриншоты

[teatrix.ru].t9123.torrent 
Торрент: Зарегистрирован [ 2015-10-18 20:31 ] · CAA22F15636B21338752C4812CCB2B6F6EBAE486

Скачать .torrent

Скачать

14 KB

Статус: проверено
Скачан: 0 раз
Размер: 670 MB
terms.php



Быстрый ответ

Имя:

      
Для отправки сообщений необходимо включить JavaScript
Показать сообщения:    

Текущее время: 05-Дек 03:23

Часовой пояс: UTC + 3


Вы можете начинать темы
Вы можете отвечать на сообщения
Вы не можете редактировать свои сообщения
Вы не можете удалять свои сообщения
Вы не можете голосовать в опросах
Вы не можете прикреплять файлы к сообщениям
Вы можете скачивать файлы