Монолог о Пушкине (Алексей Габрилович) [1971, документальный, история искусств, DVB]


Статистика раздачи [Обновить пиров]
Размер:  1.1 GB   |    Зарегистрирован:  1 год 1 месяц   |    Скачан:  0 раз

Полного источника не было: Никогда

 
   
 
 
 

[Цитировать]

Монолог о Пушкине- Год выпуска: 1971
Страна: СССР
Жанр: документальный, история искусств
Продолжительность: 00:49:24
Перевод: Не требуется
Русские субтитры: нет
Режиссер: Алексей ГабриловичОписание: Рассказ директора музея-заповедника А. С. Пушкина в Михайловском Семена Гейченко о русской культуре, литературе, о жизни и творчестве Пушкина.
Семен Гейченко (1903-1993) - 44 года (с 1945 г.) директорствовал в Пушкиногорье, возродив его из пепла, сделав самым посещаемым литературным музеем страны. Он предложил обществу идею проведения у Пушкина в Михайловском Всесоюзного пушкинского праздника поэзии в день рождения поэта. Судьба всех книг и альбомов Гейченко одинакова. Не успев выйти из печати, они вскоре становились библиографической редкостью. Пять изданий выдержала его книга новелл "У Лукоморья". В серии "Отечество" был издан альбом "Пушкиногорье", издательством "Молодая гвардия" — другой альбом "Приют, сияньем муз одетый". (анонс канала "Время")
Доп. информация: "Время: далекое и близкое"
Сэмпл: http://multi-up.com/950593
качество: DVB-S
формат: MPEG-PS
Видео: MPEG Video 2, 720x576@768x576 (4:3), 25 fps, ~2919 kbps avg, 0.282 bit/pixel
Аудио: 48 kHz, MPEG Audio 2, 2 ch, ~192.00 kbps avg

MediaInfo

Полное имя : H:\My Torrents\[apreder]Monolog_Pushkin(1971)DVB.mpgФормат : MPEG-PSРазмер файла : 1,10 ГбайтПродолжительность : 49 м.Режим общего битрейта : ПеременныйОбщий поток : 3174 Кбит/сек
ВидеоИдентификатор : 224 (0xE0)Формат : MPEG VideoВерсия формата : Version 2Профиль формата : Main@MainПараметр BVOP формата : ДаПараметр матрицы формата : ВыборочнаяПараметр GOP формата : M=3, N=12Продолжительность : 49 м.Вид битрейта : ПеременныйБитрейт : 2919 Кбит/секШирина : 720 пикселейВысота : 576 пикселейСоотношение сторон : 4:3Частота кадров : 25,000 кадров/секСтандарт вещания : PALЦветовое пространство : YUVСубдискретизация насыщенности : 4:2:0Битовая глубина : 8 битТип развёртки : ЧересстрочнаяПорядок развёртки : Верхнее поле первоеМетод сжатия : С потерямиБит/(Пиксели*Кадры) : 0.282Временной код первого кадра : 00:00:00:00Оригинал временного кода : Group of pictures headerРазмер потока : 1,01 Гбайт (92%)
АудиоИдентификатор : 192 (0xC0)Формат : MPEG AudioВерсия формата : Version 1Профиль формата : Layer 2Продолжительность : 49 м.Вид битрейта : ПостоянныйБитрейт : 192 Кбит/секКаналы : 2 каналаЧастота : 48,0 КГцМетод сжатия : С потерямиРазмер потока : 67,9 Мбайт (6%)

Скриншоты

Резервные скриншоты

-1'178/1'159√[-4]
[teatrix.ru].t9124.torrent 
Торрент: Зарегистрирован [ 2015-10-18 20:31 ] · C00C9A0C8AF7DBDFDBD02129DC4CCBDB998921A5

Скачать .torrent

Скачать

11 KB

Статус: проверено
Скачан: 0 раз
Размер: 1.1 GB
terms.php



Быстрый ответ

Имя:

      
Для отправки сообщений необходимо включить JavaScript
Показать сообщения:    

Текущее время: 09-Дек 01:08

Часовой пояс: UTC + 3


Вы можете начинать темы
Вы можете отвечать на сообщения
Вы не можете редактировать свои сообщения
Вы не можете удалять свои сообщения
Вы не можете голосовать в опросах
Вы не можете прикреплять файлы к сообщениям
Вы можете скачивать файлы