Мастера (Ремесленики) 8 серии [2013, Документальный, DVB]


Статистика раздачи [Обновить пиров]
Размер:  6.68 GB   |    Зарегистрирован:  1 год 1 месяц   |    Скачан:  0 раз

Полного источника не было: Никогда

 
   
 
 
 

[Цитировать]

Мастера (Ремесленики)
Год выпуска: 2013
Страна: Россия
Жанр: Документальный
Продолжительность: 00:26:00 серия
Перевод: Не требуется
Описание: Тимур Султанов отправляется к лучшим мастерам чтоб учится у них ремеслу.
качество: DVB
формат: MPG
Видео: MPEG2 Video 720x576 (4:3) 25.00fps ~3 266 Kbps
Аудио: MPEG Audio 48000Hz 2 channels 192 Кбит/сек

Список выпусков/серий

01. Мастера. Стеклодув
Поселок Первомайский, что в Смоленской области, несмотря на кажущуюся однотипность – место уникальное. Уникальное, в первую очередь, из-за своей истории. Ведь именно это место уже полтора века по праву может считаться центром стекольной промышленности нашей страны. Здесь владеют тайнами одного из самых древних и загадочных ремесел на нашей планете. Тимур Султанов путешествует по всей стране, ради знакомства с носителями многовековых традиций и хранителями тайн древнейших ремесел.
02. Мастера. Бондарь
Плодородные земли вокруг таманского залива люди населяли с незапамятных времен. И около 2000 лет назад научились выращивать виноград. Довести процесс до производства вина было делом техники. Но вино необходимо было, где то хранить. Возможно, именно в те далекие времена, на этих землях и появились первые бондари. Тимур Султанов отправляется в Краснодарский край.
03. Мастера. Кузнец
Тимур Султанов отправляется к лучшим мастерам кузнечного дела. В Сергиевом Посаде, его ждет настоящий ветеран этого древнейшего ремесла. Под его руководством Тимур попробует выковать подкову. А после, посетит город Киров, где вместе с одним из лучших в России мастеров-оружейников постарается изготовить меч из легендарной дамасской стали.
04. Мастера. Плотник
Плотницкое дело, в той или иной форме встречается в любой стране мира. В России центром деревянного зодчества по праву считается Карелия. Здесь живут мастера, которые могут построить дом без единого гвоздя. На это действительно стоит посмотреть и есть чему поучиться. Тимур Султанов отправляется к одному из самых лучших мастеров, который является одним из последних носителей русских плотницких традиций.
05. Мастера. Шахтеры
Эта профессия существует с 15-го века и за 6 столетий в ней поменялось очень многое. Кроме, пожалуй, одного! Она всегда требовала от человека невероятной выносливости, огромной физической силы, и, что самое главное, смелости, Возможно, именно поэтому 99 процентов людей избравших себе эту профессию – мужчины. Тимур Султанов расскажет о самой опасной мирной профессии на Земле. О шахтерах.
06. Мастера. Кубачинские ювелиры
Селение Кубачи расположено в 170 километрах от Махачкалы, столицы Дагестана. На вершине горы высотой 1800 метров проживает всего 3 тысячи человек. 95 процентов из них, включая женщин и детей, связаны с ювелирным искусством. У Тимура Султанова появилась уникальная возможность познакомиться с вековыми тайнами и традициями древнего народа. В одном из самых закрытых мест на нашей планете, где детей обучают ювелирному искусству сызмальства, где драгоценности лежат прямо под ногами.
07. Мастера. Камнерез
Республика Тыва – центр Азии, люди заселили эти края еще в каменном веке. Это неудивительно, ведь Тува невероятно богата ресурсами, и ко всему прочему, только здесь добывают розовый агальматолит – особый вид камня, из, которого местные мастера уже на протяжении множества столетий создают невероятные по красоте скульптуры. К одному из таких мастеров с 40-летним стажем и отправился ведущий Тимур Султанов.
08. Мастера. Гончар
Звенигород, - древнейший город с богатейшей историей и уникальными жителями! Ради знакомства с одним из них Тимур Султанов сюда и приехал. Мастер, который занимается своим ремеслом с 10- летнего возраста. Он делает изразцы по старинной технологии. Про его работы принято говорить шедевр, а руки таких людей называют золотыми. Попасть к нему на участок, где он выстроил свой собственный мир, вот так с улицы фактически нереально. Но для нашей съемочной группы мастер согласился сделать исключение.

MediaInfo

P:\222__МПЕГ\Мастера\01. Мастера. Стеклодув_DVB by kuzmichm2196 .mpg
General
Complete name : P:\222__МПЕГ\Мастера\01. Мастера. Стеклодув_DVB by kuzmichm2196 .mpg
Format : MPEG-PS
File size : 701 MiB
Duration : 27mn 44s
Overall bit rate mode : Variable
Overall bit rate : 3 531 Kbps
Writing library : (c) 1998-2012 Womble Multimedia, Inc. / MPEG Video Wizard DVD 5.0.1.100 (03/2011) / Sep 7 2012
Video #224
ID : 224 (0xE0)
Format : MPEG Video
Format version : Version 2
Format profile : Main@Main
Format settings, BVOP : Yes
Format settings, Matrix : Custom
Duration : 27mn 44s
Bit rate mode : Variable
Bit rate : 3 269 Kbps
Maximum bit rate : 15.0 Mbps
Width : 720 pixels
Height : 576 pixels
Display aspect ratio : 4:3
Frame rate : 25.000 fps
Standard : PAL
Color space : YUV
Chroma subsampling : 4:2:0
Bit depth : 8 bits
Scan type : Interlaced
Scan order : Top Field First
Compression mode : Lossy
Bits/(Pixel*Frame) : 0.315
Stream size : 649 MiB (93%)
Writing library : (c) 1998-2012 Womble Multimedia, Inc. / MPEG Video Wizard DVD 5.0.1.100 (03/2011) / Sep 7 2012
Audio #192
ID : 192 (0xC0)
Format : MPEG Audio
Format version : Version 1
Format profile : Layer 2
Duration : 27mn 44s
Bit rate mode : Constant
Bit rate : 192 Kbps
Channel(s) : 2 channels
Sampling rate : 48.0 KHz
Compression mode : Lossy
Delay relative to video : -80ms
Stream size : 38.1 MiB (5%)
Menu

Скриншоты

[teatrix.ru].t9126.torrent 
Торрент: Зарегистрирован [ 2015-10-18 20:31 ] · 30D06C0F2A524D5E00F982F2D2B7E6D19F5AB1CC

Скачать .torrent

Скачать

35 KB

Статус: проверено
Скачан: 0 раз
Размер: 6.68 GB
terms.php



Быстрый ответ

Имя:

      
Для отправки сообщений необходимо включить JavaScript
Показать сообщения:    

Текущее время: 08-Дек 21:13

Часовой пояс: UTC + 3


Вы можете начинать темы
Вы можете отвечать на сообщения
Вы не можете редактировать свои сообщения
Вы не можете удалять свои сообщения
Вы не можете голосовать в опросах
Вы не можете прикреплять файлы к сообщениям
Вы можете скачивать файлы