Исчезновение "Моны Лизы" - Человек, укравший шедевр / Mona Lisa is Missing - The Man Who Stole The Masterpiece (Джо Медейрос /Joe Medeiros) [2013, Документальный, TVRip] Rus Sub


Статистика раздачи [Обновить пиров]
Размер:  644 MB   |    Зарегистрирован:  1 год 1 месяц   |    Скачан:  0 раз

Полного источника не было: Никогда

 
   
 
 
 

[Цитировать]

Исчезновение "Моны Лизы" - Человек, укравший шедевр
/ Mona Lisa is Missing - The Man Who Stole The Masterpiece

Год выпуска: 2013
Страна: США
Жанр: Документальный
Продолжительность: 00:55:10
Перевод: Субтитры
Русские субтитры: есть
Режиссер: Джо Медейрос /Joe Medeiros
Описание: "Мона Лиза" - самая значительная картина в мире. Более 8 миллионов человек посещают Лувр каждый год и более половины приходят ради этой картины. "Мона Лиза" производит эффект. Она пленяет своей улыбкой. Есть сомнения в подлинности других работ Леонардо в Лувре, но что касается "Моны Лизы", она всегда считалась подлинной. Леонардо да Винчи считал ее одной из своих любимых картин, потому что долго возил с собой. Она была желанной и любимой. О ней писали, ее обожали. А потом картину украли, похитили! Это была кража предмета искусства самая знаменитая в наше время. Эта картина была культовой. Но сам факт похищения сделал ее всемирно известной. Парижские газеты сообщали о краже под заголовком "Невообразимо!" Это была главная новость в мире. Поразительно, что картины не было более 2-х лет! Полиция не знала, что случилось. Кто этот дерзкий преступник? Кто этот безумный коллекционер? Кто этот сумасшедший, укравший ее? Фильм восстанавливает подлинную историю человека, укравшего знаменитый шедевр.
Доп. информация: Запись с канала "Аруц 8". Фильм на английском языке с двойными субтитрами (вшитыми) на русском языке и иврите. Перевод на русский язык: Татьяна Кадаш. Субтитры: Дори Медиа От ЛТД.
Сэмпл: http://yadi.sk/d/isdaQefmHWzUD
качество: TVRip
формат: AVI
Видео: 1495 Кbps, 704х432 (1.630), 25.000 fps, MPEG-4 Visual (XviD)(Advanced Simple@L5)(BVOP2)
Аудио: 128 Kbps,48.0 KHz, 2 сhannels, MPEG Audio (MP3) (Version 1)(Layer 3)(Joint stereo)

MediaInfo

GeneralComplete name : D:\Mona Liza.aviFormat : AVIFormat/Info : Audio Video InterleaveFile size : 644 MiBDuration : 55mn 10sOverall bit rate : 1 633 KbpsWriting library : VirtualDub-MPEG2 build 24600/release
VideoID : 0Format : MPEG-4 VisualFormat profile : Advanced Simple@L5Format settings, BVOP : 2Format settings, QPel : NoFormat settings, GMC : No warppointsFormat settings, Matrix : Default (MPEG)Codec ID : XVIDCodec ID/Hint : XviDDuration : 55mn 10sBit rate : 1 495 KbpsWidth : 704 pixelsHeight : 432 pixelsDisplay aspect ratio : 1.630Frame rate : 25.000 fpsColor space : YUVChroma subsampling : 4:2:0Bit depth : 8 bitsScan type : ProgressiveCompression mode : LossyBits/(Pixel*Frame) : 0.197Stream size : 590 MiB (92%)Writing library : XviD 58
AudioID : 1Format : MPEG AudioFormat version : Version 1Format profile : Layer 3Mode : Joint stereoMode extension : MS StereoCodec ID : 55Codec ID/Hint : MP3Duration : 55mn 10sBit rate mode : ConstantBit rate : 128 KbpsChannel(s) : 2 channelsSampling rate : 48.0 KHzCompression mode : LossyStream size : 50.5 MiB (8%)Alignment : Split accross interleavesInterleave, duration : 40 ms (1.00 video frame)Interleave, preload duration : 500 ms

Скриншоты

[teatrix.ru].t9127.torrent 
Торрент: Зарегистрирован [ 2015-10-18 20:31 ] · BE09436804DCB46399EEE0B22EBE993566B6C7B5

Скачать .torrent

Скачать

1 KB

Статус: проверено
Скачан: 0 раз
Размер: 644 MB
terms.php



Быстрый ответ

Имя:

      
Для отправки сообщений необходимо включить JavaScript
Показать сообщения:    

Текущее время: 11-Дек 11:01

Часовой пояс: UTC + 3


Вы можете начинать темы
Вы можете отвечать на сообщения
Вы не можете редактировать свои сообщения
Вы не можете удалять свои сообщения
Вы не можете голосовать в опросах
Вы не можете прикреплять файлы к сообщениям
Вы можете скачивать файлы