Лавилье на Гаити / Лавилье: Дыхание Гаити / Lavilliers, dans le souffle d'Haiti (Бернар Лавилье / Bernard Lavilliers, Аксель Шарль-Мессанс / Axel Charles-Messance) [2013, культурологический, DVB] Original (Fre) + Sub (ru hard)


Статистика раздачи [Обновить пиров]
Размер:  1.52 GB   |    Зарегистрирован:  1 год 1 месяц   |    Скачан:  0 раз

Полного источника не было: Никогда

 
   
 
 
 

[Цитировать]

Лавилье на Гаити
Lavilliers, dans le souffle d'Haïti- Год выпуска: 2013
Страна: Франция
Жанр: культурологический
Продолжительность: 00:52:59
Перевод: Субтитры (перевод Г. Мирзоевой, Éclair Group)
Русские субтитры: естьРежиссер: Бернар Лавилье / Bernard Lavilliers, Аксель Шарль-Мессанс / Axel Charles-Messance
Описание: "Обольстительный и лукавый Дьявол творит зло". (из песни Бернара Лавилье "Даунтаун")
Через 3 года после разрушительного землетрясения 12 января 2010 года Бернар Лавилье вернулся на Гаити, чтобы оценить, какое влияние эта трагедия оказала на самобытное творчество представителей различных направлений национального искусства. "Я приезжаю на Гаити, чтобы доложить Европе о состоянии творческой деятельности гаитян во всех областях искусства – живописи, скульптуры, литературы, музыки". (Бернар Лавилье)-Французский певец, композитор и автор текстов Бернар Лавилье с юности занимался боксом, работал на заводе. Неоднократно сидел в тюрьме за мелкие кражи. В 19 лет совершил путешествие в Бразилию, которая станет одной из главных тем его творчества. Лавилье занимается культуризмом, эксплуатируя образ хулигана из пригорода, путешественника по экзотическим для европейца странам (Бразилия, Ямайка) и искателя приключений. В его песнях часто упоминаются наркотики и криминальные разборки. Музыкально творчество Лавилье эклектично: рок, блюз, регги, сальса. Тексты очень политизированы, но при этом глубоко поэтичны.-Доп. информация: TV5MONDE. Во время нефранцузской речи на экране дополнительно вшитые французские субтитры.
Сэмпл: http://multi-up.com/941840
качество: DVB-S
формат: MPEG-PS
Видео: MPEG Video 2, 720x576@1024x576 (16:9), 25 fps, ~3837 kbps avg, 0.370 bit/pixel
Аудио: Французский (48 kHz, MPEG Audio 2, 2 ch, ~192.00 kbps avg)
Формат субтитров: hardsub (неотключаемые)

MediaInfo

Полное имя : H:\My Torrents\[apreder]Lavilliers_dans_le_souffle_d'Haiti(2013)DVB.mpgФормат : MPEG-PSРазмер файла : 1,52 ГбайтПродолжительность : 53 м.Режим общего битрейта : ПеременныйОбщий поток : 4110 Кбит/сек
ВидеоИдентификатор : 224 (0xE0)Формат : MPEG VideoВерсия формата : Version 2Профиль формата : Main@MainПараметр BVOP формата : ДаПараметр матрицы формата : ВыборочнаяПараметр GOP формата : M=3, N=24Продолжительность : 53 м.Вид битрейта : ПеременныйБитрейт : 3837 Кбит/секШирина : 720 пикселейВысота : 576 пикселейСоотношение сторон : 16:9Частота кадров : 25,000 кадров/секСтандарт вещания : PALЦветовое пространство : YUVСубдискретизация насыщенности : 4:2:0Битовая глубина : 8 битМетод сжатия : С потерямиБит/(Пиксели*Кадры) : 0.370Временной код первого кадра : 00:00:00:00Оригинал временного кода : Group of pictures headerРазмер потока : 1,42 Гбайт (93%)
АудиоИдентификатор : 192 (0xC0)Формат : MPEG AudioВерсия формата : Version 1Профиль формата : Layer 2Продолжительность : 53 м.Вид битрейта : ПостоянныйБитрейт : 192 Кбит/секКаналы : 2 каналаЧастота : 48,0 КГцМетод сжатия : С потерямиРазмер потока : 72,8 Мбайт (5%)

Скриншоты


Резервные скриншоты


-1'143/1'124√[-4]
[teatrix.ru].t9128.torrent 
Торрент: Зарегистрирован [ 2015-10-18 20:31 ] · D4D879E54B3B18FC4D4503441FD37600E9306A29

Скачать .torrent

Скачать

16 KB

Статус: проверено
Скачан: 0 раз
Размер: 1.52 GB
terms.php



Быстрый ответ

Имя:

      
Для отправки сообщений необходимо включить JavaScript
Показать сообщения:    

Текущее время: 05-Дек 15:30

Часовой пояс: UTC + 3


Вы можете начинать темы
Вы можете отвечать на сообщения
Вы не можете редактировать свои сообщения
Вы не можете удалять свои сообщения
Вы не можете голосовать в опросах
Вы не можете прикреплять файлы к сообщениям
Вы можете скачивать файлы