Доктор Кто: Приключение в пространстве и времени / Doctor Who: An Adventure in Space and Time (Терри Макдонаф) [2013, Документальная драма, DVDRip] Sub Rus (TrueTransLate)


Статистика раздачи [Обновить пиров]
Размер:  1.29 GB   |    Зарегистрирован:  1 год 1 месяц   |    Скачан:  0 раз

Полного источника не было: Никогда

 
   
 
 
 

[Цитировать]

Доктор Кто: Приключение в пространстве и времени / Doctor Who: An Adventure in Space and Time
Год выпуска: 2013
Страна: Великобритания
Жанр: Документальная драма
Продолжительность: 01:23:02
Перевод: Субтитры (TrueTransLate)
Русские субтитры: есть
Режиссер: Терри Макдонаф
Описание: "Доктор Кто: Приключение в пространстве и времени" - британская телевизионная документальная драма, выпущенная к 50-летнему юбилею научно-фантастического телесериала «Доктор Кто». Фильм рассказывает о поразительном происхождении культового британского сериала.
В ролях: Дэвид Брэдли, Брайан Кокс, Джессика Рейн, Саша Даван, Джейми Гловер, Джемма Пауэлл, Клаудия Грант, Лесли Мэнвилл, Уильям Расселл и другие
Доп. информация: В папке Extras представлены дополнительные материалы с DVD:
1) William Hatnell - The Original - уникальные архивные кадры с Уильямом Хартнеллом, а также воспоминания о нём актёров и создателей сериала.
2) Behind the Scenes - о создании фильма "Приключение в пространстве и времени". Рассказчица - Кэрол Энн Форд.
3) Deleted Scene - удалённые сцены.
Сэмпл: http://multi-up.com/940924
качество: DVDRip
формат: AVI
Видео: XVID, 720 x 416 (1.731), 1 316 Kbps, 25.000 fps
Аудио 1: Английский, AC-3, 448 Kbps, 6 channels, 48.0 KHz (оригинальная аудиодорожка)
Аудио 2: Английский, MP3, 107 Kbps, 2 channels, 48.0 KHz (тифлокомментарий)
Субтитры: русские, английские

MediaInfo

General
Complete name : D:\An Adventure in Space and Time\An Adventure in Space and Time.avi
Format : AVI
Format/Info : Audio Video Interleave
File size : 1.09 GiB
Duration : 1h 23mn
Overall bit rate mode : Variable
Overall bit rate : 1 886 Kbps
Writing application : VirtualDubMod 1.5.4.1 (build 2178/release)
Writing library : VirtualDubMod build 2178/release
Video
ID : 0
Format : MPEG-4 Visual
Format profile : Advanced Simple@L5
Format settings, BVOP : No
Format settings, QPel : No
Format settings, GMC : No warppoints
Format settings, Matrix : Custom
Codec ID : XVID
Codec ID/Hint : XviD
Duration : 1h 23mn
Bit rate : 1 316 Kbps
Width : 720 pixels
Height : 416 pixels
Display aspect ratio : 1.731
Frame rate : 25.000 fps
Color space : YUV
Chroma subsampling : 4:2:0
Bit depth : 8 bits
Scan type : Progressive
Compression mode : Lossy
Bits/(Pixel*Frame) : 0.176
Stream size : 782 MiB (70%)
Writing library : XviD 1.2.1 (UTC 2008-12-04)
Audio #1
ID : 1
Format : AC-3
Format/Info : Audio Coding 3
Mode extension : CM (complete main)
Format settings, Endianness : Big
Codec ID : 2000
Duration : 1h 23mn
Bit rate mode : Constant
Bit rate : 448 Kbps
Channel(s) : 6 channels
Channel positions : Front: L C R, Side: L R, LFE
Sampling rate : 48.0 KHz
Bit depth : 16 bits
Compression mode : Lossy
Stream size : 266 MiB (24%)
Alignment : Split accross interleaves
Interleave, duration : 96 ms (2.40 video frames)
Interleave, preload duration : 96 ms
Language : English
Audio #2
ID : 2
Format : MPEG Audio
Format version : Version 1
Format profile : Layer 3
Mode : Joint stereo
Mode extension : MS Stereo
Codec ID : 55
Codec ID/Hint : MP3
Duration : 1h 23mn
Bit rate mode : Variable
Bit rate : 107 Kbps
Nominal bit rate : 128 Kbps
Channel(s) : 2 channels
Sampling rate : 48.0 KHz
Compression mode : Lossy
Stream size : 63.6 MiB (6%)
Alignment : Aligned on interleaves
Interleave, duration : 24 ms (0.60 video frame)
Interleave, preload duration : 465 ms
Writing library : LAME3.98r
Encoding settings : -m j -V 4 -q 2 -lowpass 17 --abr 128
Language : English

Скриншоты

[teatrix.ru].t9129.torrent 
Торрент: Зарегистрирован [ 2015-10-18 20:31 ] · 6BCE4D3D6F6580829CF4A6DC69B89B1A0E78EE52

Скачать .torrent

Скачать

14 KB

Статус: проверено
Скачан: 0 раз
Размер: 1.29 GB
terms.php



Быстрый ответ

Имя:

      
Для отправки сообщений необходимо включить JavaScript
Показать сообщения:    

Текущее время: 04-Дек 23:23

Часовой пояс: UTC + 3


Вы можете начинать темы
Вы можете отвечать на сообщения
Вы не можете редактировать свои сообщения
Вы не можете удалять свои сообщения
Вы не можете голосовать в опросах
Вы не можете прикреплять файлы к сообщениям
Вы можете скачивать файлы