Великие художники / The Great Artists / (Лара Лоу / Lara Lowe) [1999 - 2004, Живопись, искусство, история, TVRip]


Статистика раздачи [Обновить пиров]
Размер:  12.57 GB   |    Зарегистрирован:  1 год 1 месяц   |    Скачан:  1 раз

Полного источника не было: 7 месяцев 12 дней

 
   
 
 
 

[Цитировать]

Великие художники / The Great Artists
Год выпуска: 2000 - 2004
Страна: Великобритания
Жанр: Живопись, искусство, история
Продолжительность: 19 х ~00:50:00
Перевод: Одноголосый закадровый
Русские субтитры: нет

Режиссер: Лара Лоу / Lara Lowe
Описание: "Великие Художники" - это хроника жизни и творчества людей, гений которых приводил в восторг артистический мир на протяжении многих поколений.
Этот цикл выдвигает на первый план наиболее важные события, происходившие в жизни каждого художника, исследует стилистические особенности и приводит детальные объяснения их техники. Также приводится комментарий экспертов и анализ ведущих историков искусства и ученых в этой области.

Доп. информация: Релиз:
Автор релиза: mikloeff
Раздача ведется путем добавления новых серий. 28.12.2013 года добавлены 15 - 19 серии:
Постимпрессионисты: Винсент ван Гог, Поль Гоген, Густав Климт, Поль Сезанн, Анри Тулуз-Лотрек.

Сэмпл: http://multi-up.com/928828
качество: TVRip
формат: AVI
Видео: 704x528 (4/3), 25 fps, DivX 5, 1800 kbps (0.20 b/рх)
Аудио: 48000Hz, 2 ch, MPEG Layer-3, 128 kbps - Русский многоголосый

Список выпусков/серий

01. Голландские и фламандские мастера, Иероним Босх
02. Голландские и фламандские мастера, Питер Брейгель
03. Голландские и фламандские мастера, Питер Рубенс
04. Голландские и фламандские мастера, Ван Дейк
05. Голландские и фламандские мастера, Рембрандт
06. Голландские и фламандские мастера, Ян Вермеер
07. Романтики и реалисты, Эжен Делакруа
08. Романтики и реалисты, Гойя - бремя и страсть
09. Импрессионисты, Камиль Писсарро
10. Импрессионисты, Пьер Огюст Ренуар
11. Импрессионисты, Жорж Сёра
12. Импрессионисты, Эдгар Дега
13. Импрессионисты, Эдуард Мане
14. Импрессионисты, Клод Моне
15. Постимпрессионисты, Винсент ван Гог
16. Постимпрессионисты, Поль Гоген
17. Постимпрессионисты, Густав Климт
18. Постимпрессионисты, Поль Сезанн
19.Постимпрессионисты, Анри Тулуз-Лотрек

MediaInfo

Формат : AVI
Формат/Информация : Audio Video Interleave
Размер файла : 667 Мбайт
Продолжительность : 48 м.
Общий поток : 1935 Кбит/сек
Библиотека кодирования : VirtualDub build 28292/release
Видео
Идентификатор : 0
Формат : MPEG-4 Visual
Параметр BVOP формата : Нет
Параметр QPel формата : Нет
Параметр GMC формата : Без точки перехода
Параметр матрицы формата : Default (H.263)
Идентификатор кодека : DX50
Идентификатор кодека/Подсказка : DivX 5
Продолжительность : 48 м.
Битрейт : 1797 Кбит/сек
Ширина : 704 пикселя
Высота : 528 пикселей
Соотношение сторон : 4:3
Частота кадров : 25,000 кадров/сек
Цветовое пространство : YUV
Субдискретизация насыщенности : 4:2:0
Битовая глубина : 8 бит
Тип развёртки : Прогрессивная
Метод сжатия : С потерями
Бит/(Пиксели*Кадры) : 0.193
Размер потока : 619 Мбайт (93%)
Библиотека кодирования : DivX 5.2.1 (WaffleDay) (UTC 2004-09-08)
Аудио
Идентификатор : 1
Формат : MPEG Audio
Версия формата : Version 1
Профиль формата : Layer 3
Режим : Joint stereo
Расширение режима : MS Stereo
Идентификатор кодека : 55
Идентификатор кодека/Подсказка : MP3
Продолжительность : 48 м.
Вид битрейта : Постоянный
Битрейт : 128 Кбит/сек
Каналы : 2 канала
Частота : 48,0 КГц
Метод сжатия : С потерями
Размер потока : 44,1 Мбайт (7%)
Выравнивание : Разделение по промежуткам
Продолжительность промежутка : 40 мс. (1,00 видеокадр)
Время предзагрузки промежутка : 500 мс.
[teatrix.ru].t9131.torrent 
Торрент: Зарегистрирован [ 2015-10-18 20:31 ] · 922C3C2DAA8BD5BE8D2F9307534FE5237A5C2BA9

Скачать .torrent

Скачать

65 KB

Статус: проверено
Скачан: 1 раз
Размер: 12.57 GB
terms.php



Быстрый ответ

Имя:

      
Для отправки сообщений необходимо включить JavaScript
Показать сообщения:    

Текущее время: 11-Дек 09:11

Часовой пояс: UTC + 3


Вы можете начинать темы
Вы можете отвечать на сообщения
Вы не можете редактировать свои сообщения
Вы не можете удалять свои сообщения
Вы не можете голосовать в опросах
Вы не можете прикреплять файлы к сообщениям
Вы можете скачивать файлы