Русский концепт. Монологи о русском нонконформистском искусстве (Игорь Сопроненко) [2010, Документальный, DVB]


Статистика раздачи [Обновить пиров]
Размер:  925 MB   |    Зарегистрирован:  1 год 1 месяц   |    Скачан:  0 раз

Полного источника не было: Никогда

 
   
 
 
 

[Цитировать]

Русский концепт
Монологи о русском нонконформистском искусстве- Год выпуска: 2010
Страна: Россия
Жанр: документальный
Продолжительность: 00:46:29
Перевод: не требуется
Русские субтитры: "вшитые" (на англ. речь)-Режиссер: Игорь Сопроненко-Описание: Фильм построен на монологах художников и искусствоведов, которые рассказывают о нонконформистском направлении в искусстве 1960-1980-х годов в СССР. Он также затрагивает историю создания одного из крупнейших собраний произведений искусства советского периода – коллекцию американского профессора Нортона Доджа, насчитывающую сегодня более 20 тысяч экспонатов. Многие из произведений художников-участников фильма являются сегодня общепризнанной классикой отечественного искусства ХХ столетия.
Помимо откровений о собственных работах в документальной ленте звучат размышления их создателей об отношениях творческого человека к власти, политике, эмиграции, психологии прагматизма, захватившей современный художественный мир.-Доп. информация: Русская версия фильма "The Russian Concept. Reflections on Russian non-conformist art" (2009).
В фильме использованы работы: Акопяна А., Альберта Ю., Бахчанян В., Брусиловского А., Брускина Г., Булатова Э., Васильева О., Инфантэ Ф., Кабакова И., Калинина В., Комара В., Копыстянской С., Косолапова А., Краснопевцева Д., Ламма Л., Меламида А., Неизвестного Э., Немухина В., Орлова Б., Овчинникова В., Плавинского Д., Пригова Д., Рабина Д., Рухина Е., Сидура В., Скерсиса В., Сокова Л., Свешникова Б., Харитонова А., Целкова О., Штейнберга Э., Янкилевского В.-Качество: DVB
Формат: MPEG-PS
Видео: MPEG2, 720x576@768x576 (4:3), 25 fps, ~2534 Kbps (0.244 bit/pixel)
Аудио: MP2, 48 KHz, 2 ch, 192 Kbps-

MediaInfo

General
Complete name : ...\Русский концепт (2010) [DVB].mpg
Format : MPEG-PS
File size : 925 MiB
Duration : 46mn 29s
Overall bit rate mode : Variable
Overall bit rate : 2 781 Kbps
Video
ID : 224 (0xE0)
Format : MPEG Video
Format version : Version 2
Format profile : Main@Main
Format settings, BVOP : Yes
Format settings, Matrix : Custom
Format settings, GOP : Variable
Duration : 46mn 29s
Bit rate mode : Variable
Bit rate : 2 534 Kbps
Maximum bit rate : 15.0 Mbps
Width : 720 pixels
Height : 576 pixels
Display aspect ratio : 4:3
Frame rate : 25.000 fps
Standard : PAL
Color space : YUV
Chroma subsampling : 4:2:0
Bit depth : 8 bits
Scan type : Interlaced
Scan order : Top Field First
Compression mode : Lossy
Bits/(Pixel*Frame) : 0.244
Time code of first frame : 00:00:00:00
Time code source : Group of pictures header
Stream size : 843 MiB (91%)
Audio
ID : 192 (0xC0)
Format : MPEG Audio
Format version : Version 1
Format profile : Layer 2
Duration : 46mn 29s
Bit rate mode : Constant
Bit rate : 192 Kbps
Channel count : 2 channels
Sampling rate : 48.0 KHz
Compression mode : Lossy
Stream size : 63.9 MiB (7%)
[teatrix.ru].t9132.torrent 
Торрент: Зарегистрирован [ 2015-10-18 20:31 ] · 44D352CF8472F236BC66D88FCD0DCC9A401E1C8F

Скачать .torrent

Скачать

19 KB

Статус: проверено
Скачан: 0 раз
Размер: 925 MB
terms.php



Быстрый ответ

Имя:

      
Для отправки сообщений необходимо включить JavaScript
Показать сообщения:    

Текущее время: 11-Дек 03:20

Часовой пояс: UTC + 3


Вы можете начинать темы
Вы можете отвечать на сообщения
Вы не можете редактировать свои сообщения
Вы не можете удалять свои сообщения
Вы не можете голосовать в опросах
Вы не можете прикреплять файлы к сообщениям
Вы можете скачивать файлы