Русская живопись. ХХ век. Противостояние Марса (Валерий Наумов) [1991, Документальный, DVB]


Статистика раздачи [Обновить пиров]
Размер:  1.01 GB   |    Зарегистрирован:  1 год 1 месяц   |    Скачан:  0 раз

Полного источника не было: Никогда

 
   
 
 
 

[Цитировать]

Русская живопись. ХХ век. Противостояние Марса- Год выпуска: 1991
Страна: СССР
Жанр: документальный
Продолжительность: 00:28:49
Перевод: не требуется-Режиссер: Валерий Наумов-Описание: О художниках – представителях русской авангардной живописи.-Доп. информация: Производство студии "Панорама" по заказу Гостелерадио СССР.-Качество: DVB
Формат: MPEG-PS
Видео: MPEG-2, 720x576@768x576 (4:3), 25 fps, ~4733 Kbps (0.457 bit/pixel)
Аудио: MP2, 48 KHz, 2 ch, 192 Kbps-

MediaInfo

General
Complete name : ...\Русская живопись. XX век. Противостояние Марса (1991) [DVB].mpg
Format : MPEG-PS
File size : 1.01 GiB
Duration : 28mn 49s
Overall bit rate mode : Variable
Overall bit rate : 5 025 Kbps
Video
ID : 224 (0xE0)
Format : MPEG Video
Format version : Version 2
Format profile : Main@Main
Format settings, BVOP : Yes
Format settings, Matrix : Custom
Format settings, GOP : Variable
Duration : 28mn 49s
Bit rate mode : Variable
Bit rate : 4 733 Kbps
Maximum bit rate : 15.0 Mbps
Width : 720 pixels
Height : 576 pixels
Display aspect ratio : 4:3
Frame rate : 25.000 fps
Standard : PAL
Color space : YUV
Chroma subsampling : 4:2:0
Bit depth : 8 bits
Scan type : Interlaced
Scan order : Top Field First
Compression mode : Lossy
Bits/(Pixel*Frame) : 0.457
Time code of first frame : 00:00:00:00
Time code source : Group of pictures header
Stream size : 976 MiB (94%)
Audio
ID : 192 (0xC0)
Format : MPEG Audio
Format version : Version 1
Format profile : Layer 2
Duration : 28mn 49s
Bit rate mode : Constant
Bit rate : 192 Kbps
Channel count : 2 channels
Sampling rate : 48.0 KHz
Compression mode : Lossy
Delay relative to video : -80ms
Stream size : 39.6 MiB (4%)

Скриншоты

[teatrix.ru].t9134.torrent 
Торрент: Зарегистрирован [ 2015-10-18 20:31 ] · 2F31C65B4CC2080A1ADA747E4FE9E8B5BB257D42

Скачать .torrent

Скачать

11 KB

Статус: проверено
Скачан: 0 раз
Размер: 1.01 GB
terms.php



Быстрый ответ

Имя:

      
Для отправки сообщений необходимо включить JavaScript
Показать сообщения:    

Текущее время: 10-Дек 17:48

Часовой пояс: UTC + 3


Вы можете начинать темы
Вы можете отвечать на сообщения
Вы не можете редактировать свои сообщения
Вы не можете удалять свои сообщения
Вы не можете голосовать в опросах
Вы не можете прикреплять файлы к сообщениям
Вы можете скачивать файлы