Строить музеи! [2013, культура и искусство, WEBRip]


Статистика раздачи [Обновить пиров]
Размер:  109 MB   |    Зарегистрирован:  1 год 1 месяц   |    Скачан:  0 раз

Полного источника не было: Никогда

 
   
 
 
 

[Цитировать]

Строить музеи!
Год выпуска: 2013
Страна: Россия
Жанр: культура и искусство
Продолжительность: 00:10:50
Перевод: Не требуется
Русские субтитры: нет
Описание: Валентин Гаврилов о необходимости развития культуры, строительстве музеев
качество: WEBRip
формат: AVI
Видео: xvid, 720x400 (16:9), 25.000 fps, 1 197 Kbps (0.166 bit/pixel)
Аудио: MP3, 48.0 KHz, 2 ch, 192 Kbps, CBR

MediaInfo

Общее
Полное имя : I:\AVI\Строить музеи!.avi
Формат : AVI
Формат/Информация : Audio Video Interleave
Размер файла : 109 Мбайт
Продолжительность : 10 м.
Общий поток : 1402 Кбит/сек
Программа кодирования : Lavf54.6.100
Видео
Идентификатор : 0
Формат : xvid
Идентификатор кодека : xvid
Продолжительность : 10 м.
Битрейт : 1197 Кбит/сек
Ширина : 720 пикселей
Высота : 400 пикселей
Соотношение сторон : 16:9
Частота кадров : 25,000 кадров/сек
Бит/(Пиксели*Кадры) : 0.166
Размер потока : 92,6 Мбайт (85%)
Аудио
Идентификатор : 1
Формат : MPEG Audio
Версия формата : Version 1
Профиль формата : Layer 3
Режим : Joint stereo
Идентификатор кодека : 55
Идентификатор кодека/Подсказка : MP3
Продолжительность : 10 м.
Вид битрейта : Постоянный
Битрейт : 192 Кбит/сек
Каналы : 2 канала
Частота : 48,0 КГц
Метод сжатия : С потерями
Размер потока : 14,9 Мбайт (14%)
Выравнивание : Соединение по промежуткам
Продолжительность промежутка : 24 мс. (0,60 видеокадр)
Время предзагрузки промежутка : 24 мс.
Библиотека кодирования : LAME3.98.4

Скриншоты

[teatrix.ru].t9135.torrent 
Торрент: Зарегистрирован [ 2015-10-18 20:31 ] · 991EA8B3F805069F4C9D6981648F740C2AEA841E

Скачать .torrent

Скачать

18 KB

Статус: проверено
Скачан: 0 раз
Размер: 109 MB
terms.php



Быстрый ответ

Имя:

      
Для отправки сообщений необходимо включить JavaScript
Показать сообщения:    

Текущее время: 05-Дек 05:25

Часовой пояс: UTC + 3


Вы можете начинать темы
Вы можете отвечать на сообщения
Вы не можете редактировать свои сообщения
Вы не можете удалять свои сообщения
Вы не можете голосовать в опросах
Вы не можете прикреплять файлы к сообщениям
Вы можете скачивать файлы