Великие Леди Стриптиза / The Great Ladies of Striptease (Франсуаз Леви / Francoise Levie) [1995, США, документальный, эротика, VHSRip] DVO


Статистика раздачи [Обновить пиров]
Размер:  712 MB   |    Зарегистрирован:  1 год 1 месяц   |    Скачан:  0 раз

Полного источника не было: Никогда

 
   
 
 
 

[Цитировать]

Великие Леди Стриптиза / The Great Ladies of Striptease
Страна: США
Жанр: документальный, эротика
Год выпуска: 1995
Продолжительность: 00:52:19
Перевод: Профессиональный (двухголосый закадровый)
Cубтитры: нет
Оригинальная аудиодорожка: нет
Режиссер: Франсуаз Леви / Francoise Levie
В ролях: Джипси Роуз / Gipsy Rose Lee, Салли Рэнд / Sally Rand, Мицы Сэнт Клэр / Mitzi St. Clair, Лили Сэнт Сир / Lili St. Cyr, Дикси Эванс / Dixie Evans
Рецензия Михаила Иванова: Фильм, доказывающий, что хороший стриптиз действительно может быть приравнен к виду искусства, которому, кстати, уже более 100 лет. Вы увидите редкие архивные кадры и современные эротические шоу.
ЕДИНСТВЕННОЕ И ПОСЛЕДНЕЕ ИСКЛЮЧЕНИЕ ДЛЯ ПЕРЕГОВОРЩИКОВ
Доп. информация: - фильм оцифрован мной с коллекционной VHS
Сэмпл: http://multi-up.com/932148
Качество видео: VHSRip
Формат видео: AVI
Видео: 688x528 (1.30:1), 25 fps, XviD build 50 ~1669 kbps avg, 0.18 bit/pixel
Аудио: 48 kHz, AC3 Dolby Digital, 2/0 (L,R) ch, ~224 kbps

MediaInfo

Формат : AVI
Формат/Информация : Audio Video Interleave
Размер файла : 712 Мбайт
Продолжительность : 52 м.
Общий поток : 1903 Кбит/сек
Название фильма : The Great Ladies of Striptease (1995)
Программа кодирования : VirtualDubMod 1.5.10.3 | www.virtualdub-fr.org || (build 2550/release)
Библиотека кодирования : VirtualDubMod build 2550/release
Видео
Идентификатор : 0
Формат : MPEG-4 Visual
Профиль формата : Advanced Simple@L5
Параметр BVOP формата : 1
Параметр QPel формата : Нет
Параметр GMC формата : Без точки перехода
Параметр матрицы формата : Default (H.263)
Идентификатор кодека : XVID
Идентификатор кодека/Подсказка : XviD
Продолжительность : 52 м.
Битрейт : 1670 Кбит/сек
Ширина : 688 пикселей
Высота : 528 пикселей
Соотношение сторон : 4:3
Частота кадров : 25,000 кадров/сек
Цветовое пространство : YUV
Субдискретизация насыщенности : 4:2:0
Битовая глубина : 8 бит
Тип развёртки : Прогрессивная
Метод сжатия : С потерями
Бит/(Пиксели*Кадры) : 0.184
Размер потока : 625 Мбайт (88%)
Библиотека кодирования : XviD 1.2.1 (UTC 2008-12-04)
Аудио
Идентификатор : 1
Формат : AC-3
Формат/Информация : Audio Coding 3
Расширение режима : CM (complete main)
Параметр Endianness формата : Big
Идентификатор кодека : 2000
Продолжительность : 52 м.
Вид битрейта : Постоянный
Битрейт : 224 Кбит/сек
Каналы : 2 канала
Расположение каналов : Front: L R
Частота : 48,0 КГц
Битовая глубина : 16 бит
Метод сжатия : С потерями
Размер потока : 83,8 Мбайт (12%)
Выравнивание : Разделение по промежуткам
Продолжительность промежутка : 40 мс. (1,00 видеокадр)
Время предзагрузки промежутка : 500 мс.
Заголовок : russian
[teatrix.ru].t9136.torrent 
Торрент: Зарегистрирован [ 2015-10-18 20:31 ] · 47C6554521617B92C2795599C99F19831BFC4114

Скачать .torrent

Скачать

15 KB

Статус: проверено
Скачан: 0 раз
Размер: 712 MB
terms.php



Быстрый ответ

Имя:

      
Для отправки сообщений необходимо включить JavaScript
Показать сообщения:    

Текущее время: 04-Дек 11:09

Часовой пояс: UTC + 3


Вы можете начинать темы
Вы можете отвечать на сообщения
Вы не можете редактировать свои сообщения
Вы не можете удалять свои сообщения
Вы не можете голосовать в опросах
Вы не можете прикреплять файлы к сообщениям
Вы можете скачивать файлы