Александр Петров. Искусство на кончиках пальцев (Алексей Погребной) [2012, Документальный фильм, IPTVRip]


Статистика раздачи [Обновить пиров]
Размер:  569 MB   |    Зарегистрирован:  1 год 1 месяц   |    Скачан:  0 раз

Полного источника не было: Никогда

 
   
 
 
 

[Цитировать]

Александр Петров
Искусство на кончиках пальцев
Год выпуска: 2012
Страна: Россия
Жанр: Документальный фильм
Продолжительность: 00:47:56
Перевод: Не требуется
Русские субтитры: нет
Режиссер: Алексей Погребной
Описание:
Фильм-портрет выдающегося российского художника-аниматора Александра Петрова, лауреата Государственной премии России и премии "Оскар" за мультфильм "Старик и море", автора замечательных фильмов "Корова", "Русалка", "Моя любовь".
Техника, в которой работает Александр Петров, невероятно сложна и называется "пальцевая живопись", художник рисует свои фильмы пальцами на стекле.
Производство киновидеостудии "Вятка"
Сэмпл
качество: IPTVRip
формат: AVI
Видео: 704x400 (1.76:1), 25 fps, XviD build 50 ~1521 kbps avg, 0.22 bit/pixel
Аудио: 48 kHz, MPEG Layer 3, 2 ch, ~128.00 kbps avg

MediaInfo

GeneralComplete name : E:\Александр Петров. Искусство на кончиках пальцев (2012).aviFormat : AVIFormat/Info : Audio Video InterleaveFile size : 569 MiBDuration : 47mn 56sOverall bit rate : 1 660 KbpsWriting application : VirtualDubMod 1.5.10.3 | www.virtualdub-fr.org || (build 2550/release)Writing library : VirtualDubMod build 2550/release
VideoID : 0Format : MPEG-4 VisualFormat profile : Advanced Simple@L5Format settings, BVOP : YesFormat settings, QPel : NoFormat settings, GMC : No warppointsFormat settings, Matrix : Default (H.263)Codec ID : XVIDCodec ID/Hint : XviDDuration : 47mn 56sBit rate : 1 522 KbpsWidth : 704 pixelsHeight : 400 pixelsDisplay aspect ratio : 16:9Frame rate : 25.000 fpsColor space : YUVChroma subsampling : 4:2:0Bit depth : 8 bitsScan type : ProgressiveCompression mode : LossyBits/(Pixel*Frame) : 0.216Stream size : 522 MiB (92%)Writing library : XviD 1.2.1 (UTC 2008-12-04)
AudioID : 1Format : MPEG AudioFormat version : Version 1Format profile : Layer 3Codec ID : 55Codec ID/Hint : MP3Duration : 47mn 56sBit rate mode : ConstantBit rate : 128 KbpsChannel count : 2 channelsSampling rate : 48.0 KHzCompression mode : LossyStream size : 43.9 MiB (8%)Alignment : Aligned on interleavesInterleave, duration : 40 ms (1.00 video frame)Interleave, preload duration : 504 msWriting library : LAME3.99rEncoding settings : -m s -V 4 -q 2 -lowpass 17 -b 128

Скриншоты

[teatrix.ru].t9137.torrent 
Торрент: Зарегистрирован [ 2015-10-18 20:31 ] · FCDDAD76025D63E79C2DA69926A397E4F19CB2B5

Скачать .torrent

Скачать

12 KB

Статус: проверено
Скачан: 0 раз
Размер: 569 MB
terms.php



Быстрый ответ

Имя:

      
Для отправки сообщений необходимо включить JavaScript
Показать сообщения:    

Текущее время: 06-Дек 19:02

Часовой пояс: UTC + 3


Вы можете начинать темы
Вы можете отвечать на сообщения
Вы не можете редактировать свои сообщения
Вы не можете удалять свои сообщения
Вы не можете голосовать в опросах
Вы не можете прикреплять файлы к сообщениям
Вы можете скачивать файлы