Приют комедиантов. Встречи (Сергей Варновский) [2013, ТВ-передача, театр, искусство, SATRip]


Статистика раздачи [Обновить пиров]
Размер:  1.09 GB   |    Зарегистрирован:  1 год 1 месяц   |    Скачан:  0 раз

Полного источника не было: Никогда

 
   
 
 
 

[Цитировать]

Приют комедиантов. Встречи
Год выпуска: 2013
Страна: Россия , ООО "Эксклюзив ТВ"
Жанр: ТВ-передача, театр, искусство
Продолжительность: 01:29:00
Перевод: Не требуется
Русские субтитры: нет
Режиссер: Сергей Варновский
Описание: Гости программы расскажут о том, какую роль в их жизни сыграли встречи. Встречи бывают разные - неожиданные, любопытные, яркие, незабываемые, судьбоносные и даже встречи "у рояля". Зрители узнают, после какого подарка Аллы Суриковой Владимир Путин стал президентом, как осуществилась самая заветная мечта о встрече Эвклида Кюрдзидиса и многое другое.
качество: SATRip
формат: AVI
Видео: 688х528 (1.30:1), 25 fps, XviD, ~ 1598 kbps avg, 0.18 bit/pixel
Аудио: 48 kHz, MPEG Layer 3, 2 ch, ~ 128 kbps avg

MediaInfo

Complete name : D:\Музыкальные\Приют комедиантов.Встречи.avi
Format : AVI
Format/Info : Audio Video Interleave
File size : 1.09 GiB
Duration : 1h 29mn
Overall bit rate : 1 736 Kbps
Writing application : VirtualDubMod 1.5.10.3 | www.virtualdub-fr.org || (build 2550/release)
Writing library : VirtualDubMod build 2550/release
Video
ID : 0
Format : MPEG-4 Visual
Format profile : Advanced Simple@L5
Format settings, BVOP : 2
Format settings, QPel : No
Format settings, GMC : No warppoints
Format settings, Matrix : Default (MPEG)
Codec ID : XVID
Codec ID/Hint : XviD
Duration : 1h 29mn
Bit rate : 1 598 Kbps
Width : 688 pixels
Height : 528 pixels
Display aspect ratio : 4:3
Frame rate : 25.000 fps
Color space : YUV
Chroma subsampling : 4:2:0
Bit depth : 8 bits
Scan type : Progressive
Compression mode : Lossy
Bits/(Pixel*Frame) : 0.176
Stream size : 1.00 GiB (92%)
Writing library : XviD 1.2.1 (UTC 2008-12-04)
Audio
ID : 1
Format : MPEG Audio
Format version : Version 1
Format profile : Layer 3
Codec ID : 55
Codec ID/Hint : MP3
Duration : 1h 29mn
Bit rate mode : Constant
Bit rate : 128 Kbps
Channel(s) : 2 channels
Sampling rate : 48.0 KHz
Compression mode : Lossy
Stream size : 82.2 MiB (7%)
Alignment : Aligned on interleaves
Interleave, duration : 40 ms (1.00 video frame)
Interleave, preload duration : 504 ms
Writing library : LAME3.99r
Encoding settings : -m s -V 4 -q 2 -lowpass 17 -b 128

Скриншоты



[teatrix.ru].t9138.torrent 
Торрент: Зарегистрирован [ 2015-10-18 20:31 ] · FC48C9BDE5EA53EC487CC6FC47A9EE57C287998F

Скачать .torrent

Скачать

22 KB

Статус: проверено
Скачан: 0 раз
Размер: 1.09 GB
terms.php



Быстрый ответ

Имя:

      
Для отправки сообщений необходимо включить JavaScript
Показать сообщения:    

Текущее время: 11-Дек 14:59

Часовой пояс: UTC + 3


Вы можете начинать темы
Вы можете отвечать на сообщения
Вы не можете редактировать свои сообщения
Вы не можете удалять свои сообщения
Вы не можете голосовать в опросах
Вы не можете прикреплять файлы к сообщениям
Вы можете скачивать файлы