Экстремальное искусство: фотограф Александр Дешаме / В поисках вдохновения / Le photographe de l\'extreme: Alexandre Deschaumes / La Quete d\'Inspiration (Матье Ле Лэ / Mathieu Le Lay) [2012, искусство фотографии, DVB] Original (Fre) + Sub


Статистика раздачи [Обновить пиров]
Размер:  1.52 GB   |    Зарегистрирован:  1 год 1 месяц   |    Скачан:  5 раз

Полного источника не было: 1 час 58 минут

 
   
 
 
 

[Цитировать]

Экстремальное искусство
Le photographe de l'extrême- Год выпуска: 2012
Страна: Франция
Жанр: фильм-портрет, искусство фотографии
Продолжительность: 00:52:59
Перевод: Субтитры (перевод Éclair Group)
Русские субтитры: естьРежиссер: Матье Ле Лэ / Mathieu Le Lay
Описание: Фильм рассказывает о творчестве молодого талантливого французского фотографа Александра Дешаме / Alexandre Deschaumes. В его руках фотоаппарат превращается в волшебное устройство, способное передать на фото магическую красоту природы.
Александр Дешаме - фотограф-самоучка. На протяжении вот уже 10 лет он неустанно работает и оттачивает свое мастерство в пейзажной фотографии. В своих работах фотохудожник стремится воссоздать сказочную атмосферу тех удивительных мест, в которых ему удалось побывать.
Еще 10 лет назад Александр работал на почте и думал только о том, как бы дожить до следующей зарплаты. Стремление к творчеству и художественному искусству фотограф проявлял с раннего детства, но возможности заниматься любимым делом у него не было. Желание творить и отражать красоту мира в фотографии позволило ему собраться с силами и вложить все накопленные средства в свой первый фотоаппарат. С этого всё началось.
Александр Дешаме проживает в живописном уголке на востоке Франции. Всю жизнь, будучи окруженным фантастическими горными пейзажами, фотограф видит в них свое вдохновение. Серьезно увлекшись фотографией, Александр начал свой путь поиска все новых и новых образов для творчества. За свою десятилетнюю карьеру он уже побывал в Исландии, Патагонии и США, где снял тысячи поразительных пейзажей.
Доп. информация: Запись со спутника (телеканал TV5MONDE).
Награды: приз Jean Bovon лучшему фотографу Festival du Film des Diablerets (Suisse) 2013; приз "Молодежный взгляд в будущее" - Festival International de Ménigoute 2013; приз Silver Frame - Video Festival Imperia (Italy) 2013.
Сэмпл: http://multi-up.com/928086
качество: DVB
формат: MPEG-PS
Видео: MPEG Video 2, 720x576@1024x576 (16:9), 25 fps, ~3837 kbps avg, 0.370 bit/pixel
Аудио: Французский (48 kHz, MPEG Audio 2, 2 ch, ~192.00 kbps avg)
Формат субтитров: hardsub (неотключаемые)

MediaInfo

Полное имя : H:\My Torrents\[apreder]Le_photographe_de_l'extreme(2012)DVB.mpgФормат : MPEG-PSРазмер файла : 1,52 ГбайтПродолжительность : 53 м.Режим общего битрейта : ПеременныйОбщий поток : 4110 Кбит/сек
ВидеоИдентификатор : 224 (0xE0)Формат : MPEG VideoВерсия формата : Version 2Профиль формата : Main@MainПараметр BVOP формата : ДаПараметр матрицы формата : ВыборочнаяПараметр GOP формата : M=3, N=24Продолжительность : 53 м.Вид битрейта : ПеременныйБитрейт : 3837 Кбит/секШирина : 720 пикселейВысота : 576 пикселейСоотношение сторон : 16:9Частота кадров : 25,000 кадров/секСтандарт вещания : PALЦветовое пространство : YUVСубдискретизация насыщенности : 4:2:0Битовая глубина : 8 битТип развёртки : ПрогрессивнаяПорядок развёртки : Верхнее поле первоеМетод сжатия : С потерямиБит/(Пиксели*Кадры) : 0.370Временной код первого кадра : 00:00:00:00Оригинал временного кода : Group of pictures headerРазмер потока : 1,42 Гбайт (93%)
АудиоИдентификатор : 192 (0xC0)Формат : MPEG AudioВерсия формата : Version 1Профиль формата : Layer 2Продолжительность : 53 м.Вид битрейта : ПостоянныйБитрейт : 192 Кбит/секКаналы : 2 каналаЧастота : 48,0 КГцМетод сжатия : С потерямиРазмер потока : 72,8 Мбайт (5%)

Скриншоты


Резервные скриншоты


-1'076/1'058√
[teatrix.ru].t9139.torrent 
Торрент: Зарегистрирован [ 2015-10-18 20:31 ] · B4D3FEE99E574D3C6B8020FCF6BA20D67FD32353

Скачать .torrent

Скачать

16 KB

Статус: проверено
Скачан: 5 раз
Размер: 1.52 GB
terms.php



Быстрый ответ

Имя:

      
Для отправки сообщений необходимо включить JavaScript
Показать сообщения:    

Текущее время: 03-Дек 14:35

Часовой пояс: UTC + 3


Вы можете начинать темы
Вы можете отвечать на сообщения
Вы не можете редактировать свои сообщения
Вы не можете удалять свои сообщения
Вы не можете голосовать в опросах
Вы не можете прикреплять файлы к сообщениям
Вы можете скачивать файлы