Художник Борис Заборов (Валерий Рубинчик) [1996, Биография, живопись, искусство, DVDRip]


Статистика раздачи [Обновить пиров]
Размер:  821 MB   |    Зарегистрирован:  1 год 1 месяц   |    Скачан:  0 раз

Полного источника не было: Никогда

 
   
 
 
 

[Цитировать]

Художник Борис Заборов
Год выпуска: 1996
Страна: Беларусь, Франция
Жанр: Биография, живопись, искусство
Продолжительность: 00:54:32
Перевод: Не требуется
Русские субтитры: нет

Режиссер: Валерий Рубинчик
Описание: О жизни Бориса Заборова, художника из Белоруссии, эмигрировавшего во Францию в 1981 году.
Доп. информация: Релиз:
Исходный материал предоставил некто Андрей, релиз: pmv
Присутствуют вшитые английские субтитры.
качество: DVDRip
формат: AVI
Видео: 720x560 (1.29:1), 25 fps, XviD MPEG-4 ~1999 kbps avg, 0.20 bit/pixel
Аудио: 48 kHz, MPEG Layer 3, 1 ch, ~96.00 kbps avg - Русский одноголосый

Список выпусков/серий

1 серия

MediaInfo

Формат : AVI
Формат/Информация : Audio Video Interleave
Размер файла : 821 Мбайт
Продолжительность : 54 м.
Общий поток : 2106 Кбит/сек
Программа кодирования : Lavf53.19.0
Библиотека кодирования : VirtualDub build 35486/release
Видео
Идентификатор : 0
Формат : MPEG-4 Visual
Профиль формата : Simple@L1
Параметр BVOP формата : Нет
Параметр QPel формата : Нет
Параметр GMC формата : Без точки перехода
Параметр матрицы формата : Default (H.263)
Идентификатор кодека : XVID
Идентификатор кодека/Подсказка : XviD
Продолжительность : 54 м.
Битрейт : 2000 Кбит/сек
Ширина : 720 пикселей
Высота : 560 пикселей
Соотношение сторон : 1,286
Частота кадров : 25,000 кадров/сек
Цветовое пространство : YUV
Субдискретизация насыщенности : 4:2:0
Битовая глубина : 8 бит
Тип развёртки : Прогрессивная
Метод сжатия : С потерями
Бит/(Пиксели*Кадры) : 0.198
Размер потока : 780 Мбайт (95%)
Библиотека кодирования : Lavc53.33.0
Аудио
Идентификатор : 1
Формат : MPEG Audio
Версия формата : Version 1
Профиль формата : Layer 3
Идентификатор кодека : 55
Идентификатор кодека/Подсказка : MP3
Продолжительность : 54 м.
Вид битрейта : Постоянный
Битрейт : 96,0 Кбит/сек
Каналы : 1 канал
Частота : 48,0 КГц
Метод сжатия : С потерями
Размер потока : 37,4 Мбайт (5%)
Выравнивание : Разделение по промежуткам
Продолжительность промежутка : 40 мс. (1,00 видеокадр)
Время предзагрузки промежутка : 500 мс.
[teatrix.ru].t9140.torrent 
Торрент: Зарегистрирован [ 2015-10-18 20:31 ] · F93410F1B616DFBD15C92CB5D2733D4298AF03B8

Скачать .torrent

Скачать

17 KB

Статус: проверено
Скачан: 0 раз
Размер: 821 MB
terms.php



Быстрый ответ

Имя:

      
Для отправки сообщений необходимо включить JavaScript
Показать сообщения:    

Текущее время: 03-Дек 16:44

Часовой пояс: UTC + 3


Вы можете начинать темы
Вы можете отвечать на сообщения
Вы не можете редактировать свои сообщения
Вы не можете удалять свои сообщения
Вы не можете голосовать в опросах
Вы не можете прикреплять файлы к сообщениям
Вы можете скачивать файлы