Моник Пейтраль: от фресок Ласко к фреске жизни / Monique Peytral: peindre Lascaux, peindre la vie (Констанс Райдер / Constance Ryder) [2013, фильм-портрет, DVB] Original (Fre) + Sub (rus)


Статистика раздачи [Обновить пиров]
Размер:  1.53 GB   |    Зарегистрирован:  1 год 1 месяц   |    Скачан:  0 раз

Полного источника не было: Никогда

 
   
 
 
 

[Цитировать]

Моник Пейтраль: от фресок Ласко к фреске жизни
Monique Peytral: peindre Lascaux, peindre la vie- Год выпуска: 2013
Страна: Франция
Жанр: фильм-портрет
Продолжительность: 00:53:07
Перевод: Субтитры (перевод Éclair Group)
Русские субтитры: есть
Режиссер: Констанс Райдер / Constance RyderОписание: Фильм снят к 85-летию художницы Моник Пейтраль, которая за десятилетие с 1963 по 1972 годы нарисовала точные копии картин знаменитой пещеры Ласко. За эту работу она в 2011 году была награждена званием Кавалера ордена искусства и литературы.
Пещеры Ласко в Перигоре, открытые лишь в 1940 году, являются одной из главных достопримечательностей Франции. Стены и потолок этой длинной пещеры покрыты цветными изображениями различных животных. С 1948 г. в пещеру потянулись туристы. И многочисленные посетители чуть не погубили эту уникальную доисторическую живопись. Зеленая и белая плесень, связанная с дыханием людей и с попаданием воздуха, начала уничтожать древнейшие на земле картины. Ведь этой настенной живописи 17 тысяч лет! В апреле 1963 г. пещеру пришлось закрыть для посетителей, и вскоре была сделана в скальном массиве ее точная по форме — до миллиметра — копия, а художница Моник Пейтраль прекрасно воспроизвела на стенах и потолке новой пещеры тех быков, оленей и лошадей, которые украшают настоящую пещеру Ласко, с миллиметровой точностью и используя ровно те пигменты, которые использовал доисторический человек.
Сегодня художница продолжает работать в абстрактном стиле.
Доп. информация: Запись со спутника (телеканал TV5MONDE).
Сэмпл: http://multi-up.com/924247
качество: DVB
формат: MPEG-PS
Видео: MPEG Video 2, 720x576@1024x576 (16:9), 25 fps, ~3837 kbps avg, 0.370 bit/pixel
Аудио: Французский (48 kHz, MPEG Audio 2, 2 ch, ~192.00 kbps avg)
Формат субтитров: hardsub (неотключаемые)

MediaInfo

Полное имя : H:\My Torrents\[apreder]Monique_Peytral_peindre_Lascaux_peindre_la_vie(2013)DVB.mpgФормат : MPEG-PSРазмер файла : 1,53 ГбайтПродолжительность : 53 м.Режим общего битрейта : ПеременныйОбщий поток : 4110 Кбит/сек
ВидеоИдентификатор : 224 (0xE0)Формат : MPEG VideoВерсия формата : Version 2Профиль формата : Main@MainПараметр BVOP формата : ДаПараметр матрицы формата : ВыборочнаяПараметр GOP формата : M=3, N=24Продолжительность : 53 м.Вид битрейта : ПеременныйБитрейт : 3836 Кбит/секШирина : 720 пикселейВысота : 576 пикселейСоотношение сторон : 16:9Частота кадров : 25,000 кадров/секСтандарт вещания : PALЦветовое пространство : YUVСубдискретизация насыщенности : 4:2:0Битовая глубина : 8 битТип развёртки : ЧересстрочнаяПорядок развёртки : Верхнее поле первоеМетод сжатия : С потерямиБит/(Пиксели*Кадры) : 0.370Временной код первого кадра : 00:00:00:00Оригинал временного кода : Group of pictures headerРазмер потока : 1,42 Гбайт (93%)
АудиоИдентификатор : 192 (0xC0)Формат : MPEG AudioВерсия формата : Version 1Профиль формата : Layer 2Продолжительность : 53 м.Вид битрейта : ПостоянныйБитрейт : 192 Кбит/секКаналы : 2 каналаЧастота : 48,0 КГцМетод сжатия : С потерямиРазмер потока : 73,0 Мбайт (5%)

Скриншоты


Резервные скриншоты


-1'059/1'041√
[teatrix.ru].t9142.torrent 
Торрент: Зарегистрирован [ 2015-10-18 20:31 ] · 49FC38D85F17AC4F1A151D74C3FC3B0A055BCE22

Скачать .torrent

Скачать

16 KB

Статус: проверено
Скачан: 0 раз
Размер: 1.53 GB
terms.php



Быстрый ответ

Имя:

      
Для отправки сообщений необходимо включить JavaScript
Показать сообщения:    

Текущее время: 06-Дек 15:14

Часовой пояс: UTC + 3


Вы можете начинать темы
Вы можете отвечать на сообщения
Вы не можете редактировать свои сообщения
Вы не можете удалять свои сообщения
Вы не можете голосовать в опросах
Вы не можете прикреплять файлы к сообщениям
Вы можете скачивать файлы