Сокровища Московского Кремля (Борис Конухов) [1987, Документальный, DVDRip]


Статистика раздачи [Обновить пиров]
Размер:  2.67 GB   |    Зарегистрирован:  1 год 2 месяца   |    Скачан:  1 раз
Сидов:  4  [  0 KB/s  ]   Подробная статистика пиров
 
   
 
 

[Цитировать]

Сокровища Московского Кремля
Год выпуска: 1987
Страна: СССР
Жанр: Документальный
Продолжительность: 6 x ~ 00:30:00
Перевод: Не требуется
Русские субтитры: нет
Режиссер: Борис Конухов
Описание: Фильм знакомит с архитектурой Московского Кремля, с коллекцией древнерусской живописи и ювелирных изделий, созданных русскими мастерами.
Сэмпл: http://multi-up.com/908764
Автор релиза: F-torrents
качество: DVDRip
формат: MKV
Видео: MPEG4, 720x536 (4:3), 1850 кб/с, 25.000 fps
Аудио: AC3,192 кб/с, 48.0 KHz, 2 ch,

Список выпусков/серий

1. Стены и башни
2. Соборы
3. Терема
4. Большой Кремлевский дворец
5. Оружейная палата
6. Искусство русского ювелира

MediaInfo

D:\Фильмы,клипы\Sokrovisha.Moskovskogo.Kremlia.1987.[01-06 of 06].x264.DVDRip-AVC от F-Torrents\Sokrovisha.Moskovskogo.Kremlia.Film.1.Steni.I.Bashni..mkv
General
Unique ID : 177361907157064037983642314351410210411 (0x856EA92A1B397445AFB8C7CE140CE66B)
Complete name : D:\Фильмы,клипы\Sokrovisha.Moskovskogo.Kremlia.1987.[01-06 of 06].x264.DVDRip-AVC от F-Torrents\Sokrovisha.Moskovskogo.Kremlia.Film.1.Steni.I.Bashni..mkv
Format : Matroska
Format version : Version 2
File size : 450 MiB
Duration : 30mn 48s
Overall bit rate : 2 044 Kbps
Encoded date : UTC 2013-09-15 20:23:07
Writing application : mkvmerge v5.8.0 ('No Sleep / Pillow') built on Sep 2 2012 15:37:04
Writing library : libebml v1.2.3 + libmatroska v1.3.0
Video #1
ID : 1
Format : AVC
Format/Info : Advanced Video Codec
Format profile : High@L4.1
Format settings, CABAC : Yes
Format settings, ReFrames : 4 frames
Codec ID : V_MPEG4/ISO/AVC
Duration : 30mn 48s
Bit rate : 1 850 Kbps
Width : 720 pixels
Height : 536 pixels
Display aspect ratio : 4:3
Frame rate : 25.000 fps
Color space : YUV
Chroma subsampling : 4:2:0
Bit depth : 8 bits
Scan type : Progressive
Bits/(Pixel*Frame) : 0.192
Stream size : 399 MiB (89%)
Writing library : x264 core 125 r2208 d9d2288
Encoding settings : cabac=1 / ref=3 / deblock=1:-1:-1 / analyse=0x3:0x33 / me=umh / subme=9 / psy=1 / psy_rd=1.00:0.15 / mixed_ref=1 / me_range=32 / chroma_me=1 / trellis=2 / 8x8dct=1 / cqm=0 / deadzone=21,11 / fast_pskip=0 / chroma_qp_offset=-3 / threads=12 / lookahead_threads=2 / sliced_threads=0 / nr=0 / decimate=1 / interlaced=0 / bluray_compat=0 / constrained_intra=0 / bframes=3 / b_pyramid=2 / b_adapt=0 / b_bias=0 / direct=1 / weightb=1 / open_gop=0 / weightp=2 / keyint=250 / keyint_min=25 / scenecut=40 / intra_refresh=0 / rc_lookahead=50 / rc=2pass / mbtree=1 / bitrate=1850 / ratetol=1.0 / qcomp=0.60 / qpmin=0 / qpmax=69 / qpstep=4 / cplxblur=20.0 / qblur=0.5 / ip_ratio=1.40 / aq=1:1.00
Default : Yes
Forced : No
Audio #2
ID : 2
Format : AC-3
Format/Info : Audio Coding 3
Mode extension : CM (complete main)
Format settings, Endianness : Big
Codec ID : A_AC3
Duration : 30mn 48s
Bit rate mode : Constant
Bit rate : 192 Kbps
Channel(s) : 2 channels
Channel positions : Front: L R
Sampling rate : 48.0 KHz
Bit depth : 16 bits
Compression mode : Lossy
Stream size : 42.3 MiB (9%)
Default : Yes
Forced : No

Скриншоты1 серия



2 серия



3 серия



4 серия



5 серия



6 серия



[teatrix.ru].t9145.torrent 
Торрент: Зарегистрирован [ 2015-10-18 20:31 ] · 84692E40A28591375B9A4B415D70EA28427B631F

Скачать .torrent

Скачать

14 KB

Статус: проверено
Скачан: 1 раз
Размер: 2.67 GB
terms.php



Быстрый ответ

Имя:

      
Для отправки сообщений необходимо включить JavaScript
Показать сообщения:    

Текущее время: 18-Янв 00:23

Часовой пояс: UTC + 3


Вы можете начинать темы
Вы можете отвечать на сообщения
Вы не можете редактировать свои сообщения
Вы не можете удалять свои сообщения
Вы не можете голосовать в опросах
Вы не можете прикреплять файлы к сообщениям
Вы можете скачивать файлы