Сокровища библиотек Иль-де-Франс / Tresors des bibliotheques d'Ile-de-France (Мартен Перрен / Martin Perrin) [2011, документальный, история культуры, DVB] Original (Fre) + Sub (ru hard)


Статистика раздачи [Обновить пиров]
Размер:  1.13 GB   |    Зарегистрирован:  1 год 1 месяц   |    Скачан:  0 раз

Полного источника не было: Никогда

 
   
 
 
 

[Цитировать]

Сокровища библиотек Иль-де-Франс
Trésors des bibliothèques d'Ile-de-France- Год выпуска: 2011
Страна: Франция
Жанр: документальный, история культуры
Продолжительность: 00:53:07
Перевод: Субтитры (перевод А. Вижье, Éclair Group)
Русские субтитры: есть
Режиссер: Мартен Перрен / Martin PerrinОписание: Историческое наследие Франции – это не только знаменитые замки и соборы, но и библиотеки. Из территории первых королей Франция выросла в крупную державу. До наших дней здесь сохранились прекрасные библиотеки, в том числе самые авторитетные в своей области.
Изучение эволюции этих библиотек позволяет понять историю развития современной мысли. Их архитектура, их уникальные сокровища покажут, почему эти хранилища знаний много веков пользовались неоспоримым авторитетом. (из предисловия к фильму)
Доп. информация: Запись со спутника (телеканал TV5MONDE).
Сэмпл: http://multi-up.com/907276
качество: DVB
формат: MPEG-PS
Видео: MPEG Video 2, 720x576@1024x576 (16:9), 25 fps, ~2784 kbps avg, 0.269 bit/pixel
Аудио: Французский (48 kHz, MPEG Audio 2, 2 ch, ~192.00 kbps avg)
Формат субтитров: hardsub (неотключаемые)

MediaInfo

Полное имя : H:\My Torrents\[apreder]Tresors_des_bibliotheques_d'Ile-de-France(2011)DVB.mpgФормат : MPEG-PSРазмер файла : 1,13 ГбайтПродолжительность : 53 м.Режим общего битрейта : ПеременныйОбщий поток : 3036 Кбит/сек
ВидеоИдентификатор : 224 (0xE0)Формат : MPEG VideoВерсия формата : Version 2Профиль формата : Main@MainПараметр BVOP формата : ДаПараметр матрицы формата : ВыборочнаяПараметр GOP формата : M=3, N=24Продолжительность : 53 м.Вид битрейта : ПеременныйБитрейт : 2784 Кбит/секШирина : 720 пикселейВысота : 576 пикселейСоотношение сторон : 16:9Частота кадров : 25,000 кадров/секСтандарт вещания : PALЦветовое пространство : YUVСубдискретизация насыщенности : 4:2:0Битовая глубина : 8 битМетод сжатия : С потерямиБит/(Пиксели*Кадры) : 0.269TimeCode_FirstFrame : 00:00:00:00TimeCode_Source : Group of pictures headerРазмер потока : 1,03 Гбайт (92%)
АудиоИдентификатор : 192 (0xC0)Формат : MPEG AudioВерсия формата : Version 1Профиль формата : Layer 2Продолжительность : 53 м.Вид битрейта : ПостоянныйБитрейт : 192 Кбит/секКаналы : 2 каналаЧастота : 48,0 КГцМетод сжатия : С потерямиРазмер потока : 73,0 Мбайт (6%)

Скриншоты


Скриншоты - резерв


-985/967√
[teatrix.ru].t9146.torrent 
Торрент: Зарегистрирован [ 2015-10-18 20:31 ] · A146119BB6D5E43250F7D1E18AD8CCE9B08F3852

Скачать .torrent

Скачать

12 KB

Статус: проверено
Скачан: 0 раз
Размер: 1.13 GB
terms.php



Быстрый ответ

Имя:

      
Для отправки сообщений необходимо включить JavaScript
Показать сообщения:    

Текущее время: 08-Дек 09:05

Часовой пояс: UTC + 3


Вы можете начинать темы
Вы можете отвечать на сообщения
Вы не можете редактировать свои сообщения
Вы не можете удалять свои сообщения
Вы не можете голосовать в опросах
Вы не можете прикреплять файлы к сообщениям
Вы можете скачивать файлы