Мир Виктора Васнецова (Е. Зорин) [1991, научно-популярный, VHSRip]


Статистика раздачи [Обновить пиров]
Размер:  283 MB   |    Зарегистрирован:  1 год 1 месяц   |    Скачан:  0 раз

Полного источника не было: Никогда

 
   
 
 
 

[Цитировать]

Мир Виктора Васнецова
Год выпуска: 1991
Страна: СССР
Жанр: научно-популярный
Продолжительность: 00:18:35
Перевод: Не требуется
Режиссер: Е. Зорин
Описание: О творчестве художника, создателя живописных картин на темы русского эпоса, народной сказки и росписи на нравственно-религиозные темы во Владимирском соборе и Георгиевской церкви.
качество: VHSRip
формат: AVI
Видео: Xvid 700x568 25fp 1960 kbps
Аудио: MP3 48000Hz stereo 160kbps

MediaInfo

General
Complete name : C:\Documents and Settings\User\Мои документы\Загрузки\Мир Виктора Васнецова.avi
Format : AVI
Format/Info : Audio Video Interleave
File size : 283 MiB
Duration : 18mn 35s
Overall bit rate : 2 131 Kbps
Writing library : VirtualDub build 35390/release
Video
ID : 0
Format : MPEG-4 Visual
Format profile : Advanced Simple@L5
Format settings, BVOP : Yes
Format settings, QPel : No
Format settings, GMC : No warppoints
Format settings, Matrix : Default (H.263)
Codec ID : XVID
Codec ID/Hint : XviD
Duration : 18mn 35s
Bit rate : 1 961 Kbps
Width : 700 pixels
Height : 568 pixels
Display aspect ratio : 5:4
Frame rate : 25.000 fps
Color space : YUV
Chroma subsampling : 4:2:0
Bit depth : 8 bits
Scan type : Progressive
Compression mode : Lossy
Bits/(Pixel*Frame) : 0.197
Stream size : 261 MiB (92%)
Writing library : XviD 64
Audio
ID : 1
Format : MPEG Audio
Format version : Version 1
Format profile : Layer 3
Mode : Joint stereo
Codec ID : 55
Codec ID/Hint : MP3
Duration : 18mn 35s
Bit rate mode : Constant
Bit rate : 160 Kbps
Channel count : 2 channels
Sampling rate : 48.0 KHz
Compression mode : Lossy
Stream size : 21.3 MiB (8%)
Alignment : Split accross interleaves
Interleave, duration : 40 ms (1.00 video frame)
Interleave, preload duration : 500 ms

Скриншоты

[teatrix.ru].t9151.torrent 
Торрент: Зарегистрирован [ 2015-10-18 20:31 ] · D53DEDDD06EC2D3600EEC94222600038B27EA8C5

Скачать .torrent

Скачать

12 KB

Статус: проверено
Скачан: 0 раз
Размер: 283 MB
terms.php



Быстрый ответ

Имя:

      
Для отправки сообщений необходимо включить JavaScript
Показать сообщения:    

Текущее время: 07-Дек 17:25

Часовой пояс: UTC + 3


Вы можете начинать темы
Вы можете отвечать на сообщения
Вы не можете редактировать свои сообщения
Вы не можете удалять свои сообщения
Вы не можете голосовать в опросах
Вы не можете прикреплять файлы к сообщениям
Вы можете скачивать файлы