Из истории русского портрета. Боровиковский (C. Загоскина) [1990, научно-популярный, VHSRip]


Статистика раздачи [Обновить пиров]
Размер:  286 MB   |    Зарегистрирован:  1 год 1 месяц   |    Скачан:  0 раз

Полного источника не было: Никогда

 
   
 
 
 

[Цитировать]

Из истории русского портрета. Боровиковский
Год выпуска: 1990
Страна: CCCP
Жанр: научно-популярный
Продолжительность: 00:18:44
Перевод: Не требуется
Режиссер: C. Загоскина
Описание: Время Боровиковского – это не только сентиментализм Екатерининского времени или классицизма начала 19-го века. Фильм продолжает серию фильмов из истории русского портрета.
качество: VHSRip
формат: AVI
Видео: Xvid 700x568 25fp 1977 kbps
Аудио: MP3 48000Hz stereo 160kbps

MediaInfo

General
Complete name : C:\Documents and Settings\User\Мои документы\Загрузки\Из истории русского портрета (Боровиковский).avi
Format : AVI
Format/Info : Audio Video Interleave
File size : 286 MiB
Duration : 18mn 36s
Overall bit rate : 2 147 Kbps
Writing library : VirtualDub build 35390/release
Video
ID : 0
Format : MPEG-4 Visual
Format profile : Advanced Simple@L5
Format settings, BVOP : Yes
Format settings, QPel : No
Format settings, GMC : No warppoints
Format settings, Matrix : Default (H.263)
Codec ID : XVID
Codec ID/Hint : XviD
Duration : 18mn 36s
Bit rate : 1 977 Kbps
Width : 700 pixels
Height : 568 pixels
Display aspect ratio : 5:4
Frame rate : 25.000 fps
Color space : YUV
Chroma subsampling : 4:2:0
Bit depth : 8 bits
Scan type : Progressive
Compression mode : Lossy
Bits/(Pixel*Frame) : 0.199
Stream size : 263 MiB (92%)
Writing library : XviD 64
Audio
ID : 1
Format : MPEG Audio
Format version : Version 1
Format profile : Layer 3
Mode : Joint stereo
Codec ID : 55
Codec ID/Hint : MP3
Duration : 18mn 36s
Bit rate mode : Constant
Bit rate : 160 Kbps
Channel count : 2 channels
Sampling rate : 48.0 KHz
Compression mode : Lossy
Stream size : 21.3 MiB (7%)
Alignment : Split accross interleaves
Interleave, duration : 40 ms (1.00 video frame)
Interleave, preload duration : 500 ms

Скриншоты

[teatrix.ru].t9152.torrent 
Торрент: Зарегистрирован [ 2015-10-18 20:31 ] · 3A04FAE40861F860F0169FF1CA5B3CA759676E87

Скачать .torrent

Скачать

12 KB

Статус: проверено
Скачан: 0 раз
Размер: 286 MB
terms.php



Быстрый ответ

Имя:

      
Для отправки сообщений необходимо включить JavaScript
Показать сообщения:    

Текущее время: 11-Дек 14:59

Часовой пояс: UTC + 3


Вы можете начинать темы
Вы можете отвечать на сообщения
Вы не можете редактировать свои сообщения
Вы не можете удалять свои сообщения
Вы не можете голосовать в опросах
Вы не можете прикреплять файлы к сообщениям
Вы можете скачивать файлы