Из истории русского портрета XVIII века (C. Загоскина) [1990, научно-популярный, VHSRip]


Статистика раздачи [Обновить пиров]
Размер:  284 MB   |    Зарегистрирован:  1 год 1 месяц   |    Скачан:  0 раз

Полного источника не было: Никогда

 
   
 
 
 

[Цитировать]

Из истории русского портрета XVIII века
Год выпуска: 1990
Страна: СССР
Жанр: научно-популярный
Продолжительность: 00:18:44
Перевод: Не требуется
Режиссер: C. Загоскина
Описание: Фильм состоит из двух частей: 1-я - Рокотов - художник таинственный, загадочный, которого можно понять в контексте культуры, истории. 2-я часть: более ясен и объективен Левицкий, составивший "коллективный портрет XVIII века".
качество: VHSRip
формат: AVI
Видео: Xvid 700x568 25fp 1950 kbps
Аудио: MP3 48000Hz stereo 160kbps

MediaInfo

General
Complete name : C:\Documents and Settings\User\Мои документы\Загрузки\Из истории русского портрета XVIII века.avi
Format : AVI
Format/Info : Audio Video Interleave
File size : 284 MiB
Duration : 18mn 44s
Overall bit rate : 2 118 Kbps
Writing library : VirtualDub build 35390/release
Video
ID : 0
Format : MPEG-4 Visual
Format profile : Advanced Simple@L5
Format settings, BVOP : Yes
Format settings, QPel : No
Format settings, GMC : No warppoints
Format settings, Matrix : Default (H.263)
Codec ID : XVID
Codec ID/Hint : XviD
Duration : 18mn 44s
Bit rate : 1 949 Kbps
Width : 700 pixels
Height : 568 pixels
Display aspect ratio : 5:4
Frame rate : 25.000 fps
Color space : YUV
Chroma subsampling : 4:2:0
Bit depth : 8 bits
Scan type : Progressive
Compression mode : Lossy
Bits/(Pixel*Frame) : 0.196
Stream size : 261 MiB (92%)
Writing library : XviD 64
Audio
ID : 1
Format : MPEG Audio
Format version : Version 1
Format profile : Layer 3
Mode : Joint stereo
Codec ID : 55
Codec ID/Hint : MP3
Duration : 18mn 44s
Bit rate mode : Constant
Bit rate : 160 Kbps
Channel count : 2 channels
Sampling rate : 48.0 KHz
Compression mode : Lossy
Stream size : 21.4 MiB (8%)
Alignment : Split accross interleaves
Interleave, duration : 40 ms (1.00 video frame)
Interleave, preload duration : 500 ms

Скриншоты

[teatrix.ru].t9153.torrent 
Торрент: Зарегистрирован [ 2015-10-18 20:31 ] · 60B20B1F670B564EBCF79E8C9D7DFB577D0B064D

Скачать .torrent

Скачать

12 KB

Статус: проверено
Скачан: 0 раз
Размер: 284 MB
terms.php



Быстрый ответ

Имя:

      
Для отправки сообщений необходимо включить JavaScript
Показать сообщения:    

Текущее время: 09-Дек 01:08

Часовой пояс: UTC + 3


Вы можете начинать темы
Вы можете отвечать на сообщения
Вы не можете редактировать свои сообщения
Вы не можете удалять свои сообщения
Вы не можете голосовать в опросах
Вы не можете прикреплять файлы к сообщениям
Вы можете скачивать файлы