Школа-студия МХАТ. Вчера, сегодня, завтра (Эдуард Кольбус) [1993, телепередача, история театра, DVB]


Статистика раздачи [Обновить пиров]
Размер:  1.57 GB   |    Зарегистрирован:  1 год 1 месяц   |    Скачан:  0 раз

Полного источника не было: Никогда

 
   
 
 
 

[Цитировать]

Школа-студия МХАТ
Вчера, сегодня, завтра- Год выпуска: 1993
Страна: Россия
Жанр: телепередача, история театра
Продолжительность: 00:44:50
Перевод: Не требуется
Русские субтитры: нет
Режиссер: Эдуард КольбусОписание: Передача к 50-летию Школы-студии МХАТ с участием директора Музея МХАТ Владлена Давыдова, директора Музея-квартиры В.И. Немировича-Данченко Андрея Баратова, ректора Школы-студии МХАТ Олега Табакова, педагогов Виталия Виленкина, Авангарда Леонтьева и Анатолия Ромашина, студийцев первого выпуска Школы-студии набора 1943 года и юной студентки Анастасии Заворотнюк.
Вы увидите выступление В.И. Качалова в роли Барона во фрагменте спектакля по пьесе М.Горького "На дне", фрагмент из дипломного спектакля по пьесе К.Гольдони "Один из последних вечеров карнавала" (режиссер-педагог Вячеслав Долгачёв, руководитель курса Ю.И. Ерёмин), фрагменты из дипломных работ по мастерству актера выпуска 1993 года. Текст читал Юрий Ларионов, студиец первого выпуска.
Доп. информация: Запись со спутника (телеканал "Ностальгия").
Сэмпл: http://multi-up.com/899983
качество: DVB
формат: MPEG-PS
Видео: MPEG Video 2, 720x576@768x576 (4:3), 25 fps, ~4725 kbps avg, 0.456 bit/pixel
Аудио: 48 kHz, MPEG Audio 2, 2 ch, ~192.00 kbps avg

MediaInfo

Полное имя : H:\My Torrents\[apreder]MHAT_School_Theatre(1993)DVB.mpgФормат : MPEG-PSРазмер файла : 1,57 ГбайтПродолжительность : 44 м.Режим общего битрейта : ПеременныйОбщий поток : 5017 Кбит/сек
ВидеоИдентификатор : 224 (0xE0)Формат : MPEG VideoВерсия формата : Version 2Профиль формата : Main@MainПараметр BVOP формата : ДаПараметр матрицы формата : ВыборочнаяПараметр GOP формата : M=3, N=36Продолжительность : 44 м.Вид битрейта : ПеременныйБитрейт : 4725 Кбит/секШирина : 720 пикселейВысота : 576 пикселейСоотношение сторон : 4:3Частота кадров : 25,000 кадров/секСтандарт вещания : PALЦветовое пространство : YUVСубдискретизация насыщенности : 4:2:0Битовая глубина : 8 битТип развёртки : ЧересстрочнаяПорядок развёртки : Верхнее поле первоеМетод сжатия : С потерямиБит/(Пиксели*Кадры) : 0.456TimeCode_FirstFrame : 00:00:00:00TimeCode_Source : Group of pictures headerРазмер потока : 1,48 Гбайт (94%)
АудиоИдентификатор : 192 (0xC0)Формат : MPEG AudioВерсия формата : Version 1Профиль формата : Layer 2Продолжительность : 44 м.Вид битрейта : ПостоянныйБитрейт : 192 Кбит/секКаналы : 2 каналаЧастота : 48,0 КГцМетод сжатия : С потерямиРазмер потока : 61,6 Мбайт (4%)

Скриншоты

Резервные скриншоты

-948/930√
[teatrix.ru].t9154.torrent 
Торрент: Зарегистрирован [ 2015-10-18 20:31 ] · C33E185CD51E67428E44360EAE26D3877F71935B

Скачать .torrent

Скачать

16 KB

Статус: проверено
Скачан: 0 раз
Размер: 1.57 GB
terms.php



Быстрый ответ

Имя:

      
Для отправки сообщений необходимо включить JavaScript
Показать сообщения:    

Текущее время: 11-Дек 05:21

Часовой пояс: UTC + 3


Вы можете начинать темы
Вы можете отвечать на сообщения
Вы не можете редактировать свои сообщения
Вы не можете удалять свои сообщения
Вы не можете голосовать в опросах
Вы не можете прикреплять файлы к сообщениям
Вы можете скачивать файлы