Берег женщин (Виктор Безега) [2012, Хореографическая композиция, SATRip]


Статистика раздачи [Обновить пиров]
Размер:  1.14 GB   |    Зарегистрирован:  1 год 1 месяц   |    Скачан:  0 раз

Полного источника не было: Никогда

 
   
 
 
 

[Цитировать]

Берег женщин
Год выпуска: 2012
Страна: Россия
Жанр: Хореографическая композиция
Продолжительность: 01:19:33
Перевод: Не требуется
Русские субтитры: нет
Режиссер: Виктор Безега

Описание:
Хореографическая композиция по мотивам песен Marlen Ditrich. Подобных спектаклей в репертуаре Вахтанговского театра не было. В основе спектакля всегда лежала драматургия, слово было главным выражением мысли, а музыка, пластика - дополнением к изобразительному ряду. Литовский балетмейстер Анжелика Холина обратилась к теме войны как катастрофе, согнавшей с родных мест, лишившей крова людей разных национальностей. Мужчины стали воинами, женщины - изгнанницами, бежавшими от ужасов разрушения и насилия. Они оказались на неведомой земле в городском кафе в ожидании очередного корабля в надежде на спасение и обретение пристанища. Берег женщин - это берег надежды, к которому устремляются героини спектакля. Действие этого спектакля - ожидание, каждый персонаж - индивидуальность со своим прошлым, настоящим, мечтой о будущем.
Жизнь продолжается... и в ней есть драматизм, гротеск и даже лирические моменты. Женщины остаются женщинами. В этом запущенном кафе странно смотрятся красивые платья героинь, они не смогли с ними расстаться, засунув в спешке в чемоданы. Жизнь продолжается... барышни кокетничают
с официантами, а те, кто постарше, всматриваются в лица проходящих солдат, надеясь найти родных.
Музыкальная доминанта спектакля - песни Марлен Дитрих, каждая из которых - маленький сюжет, переплетающийся с судьбами героинь. Почему Марлен Дитрих? Соблазнителен не диапазон голоса актрисы, а его многокрасочность и мастерство перевоплощения. Марлен Дитрих поет на немецком, английском, французском, иврите и это тоже совпадает с национальностью персонажей спектакля. Не всегда понятны слова, но читаем язык эмоций - страсти, расставаний, любви, надежды.
Несколько часов из жизни женщин - тревожных, трепетных, трагических, переданных пластикой, танцем, жестом, музыкой.

Семпл:http://multi-up.com/899720
Доп. информация:
В ролях:
Мария Сластенкова, Мария Волкова, Марика Джапаридзе, Мария Бердинских, Нино Кантария, Валерий Ушаков,
Вера Новикова, Антон Торсуков, Анна Антонова, Виктор Добронравов, Евгения Крегжде, Екатерина Симонова,
Мария Костикова, Александра Платонова, Роман Полянский, Олег Лопухов, Сергей Епишев, Инна Алабина,
Василиса Суханова, Артур Иванов, Марина Есипенко, Кирилл Рубцов, Ольга Лерман, Александр Солдаткин,
Василий Симонов, Лидия Вележева, Владимир Бельдиян, Марина Храмова, Анастасия Васильева, Олег Макаров

Звучат произведения:
Cheche la rose / Ищу розу
Wer wird denn weinen, wenn man auseinander geht / Кто будет плакать, расставаясь
Peter
Kinder, heut' abend,da such ich mir was aus / Сегодня я что-то выберу
Кремовое танго
Shir Hatan / Песня шакала
Near you / Рядом с тобой
Astor Piazzolla. Аргентинский еврей
Mein blondes Baby / Моя блондинка
You're the cream in my coffee / Ты - сливки в моём кофе
Just a Gigolo / Просто жиголо
Johnny, wenn du Geburstag hast / Джонни
Bitte geh nicht fort / Не уходи
Ich bin die fesche Lola / Лола
Lili Marlen

Автор релиза: maslovagal
качество: SATRip
формат: AVI
Видео: 704x400 (1.76:1)25 fpsDivX Codec 5.05*1844 kbps avg0.26 bit/pixel
Аудио: 48 kHzMPEG Layer 3*2 ch192.00 kbps avg

MediaInfo

Формат : AVIФормат/Информация : Audio Video InterleaveРазмер файла : 1,14 ГбайтПродолжительность : 1 ч. 19 м.Общий поток : 2046 Кбит/секБиблиотека кодирования : VirtualDub build 32661/release
ВидеоИдентификатор : 0Формат : MPEG-4 VisualПараметр BVOP формата : НетПараметр QPel формата : НетПараметр GMC формата : Без точки переходаПараметр матрицы формата : Default (H.263)Идентификатор кодека : DX50Идентификатор кодека/Подсказка : DivX 5Продолжительность : 1 ч. 19 м.Битрейт : 1844 Кбит/секШирина : 704 пикселяВысота : 400 пикселейСоотношение сторон : 16:9Частота кадров : 25,000 кадров/секЦветовое пространство : YUVСубдискретизация насыщенности : 4:2:0Битовая глубина : 8 битТип развёртки : ПрогрессивнаяМетод сжатия : С потерямиБит/(Пиксели*Кадры) : 0.262Размер потока : 1,02 Гбайт (90%)Библиотека кодирования : DivX 5.0.5 (UTC 2003-04-24)
АудиоИдентификатор : 1Формат : MPEG AudioВерсия формата : Version 1Профиль формата : Layer 3Режим : Joint stereoИдентификатор кодека : 55Идентификатор кодека/Подсказка : MP3Продолжительность : 1 ч. 19 м.Вид битрейта : ПостоянныйБитрейт : 192 Кбит/секКаналы : 2 каналаЧастота : 48,0 КГцМетод сжатия : С потерямиРазмер потока : 109 Мбайт (9%)Выравнивание : Разделение по промежуткамПродолжительность промежутка : 40 мс. (1,00 видеокадр)Время предзагрузки промежутка : 500 мс.

Скриншоты

[teatrix.ru].t9155.torrent 
Торрент: Зарегистрирован [ 2015-10-18 20:31 ] · 9C8527F9541E3D23D402A16F3CA736FDB7A5D16F

Скачать .torrent

Скачать

12 KB

Статус: проверено
Скачан: 0 раз
Размер: 1.14 GB
terms.php



Быстрый ответ

Имя:

      
Для отправки сообщений необходимо включить JavaScript
Показать сообщения:    

Текущее время: 10-Дек 23:28

Часовой пояс: UTC + 3


Вы можете начинать темы
Вы можете отвечать на сообщения
Вы не можете редактировать свои сообщения
Вы не можете удалять свои сообщения
Вы не можете голосовать в опросах
Вы не можете прикреплять файлы к сообщениям
Вы можете скачивать файлы