Игорь Добролюбов с друзьями (Дмитрий Михлеев) [2003, Театр и искусство, DVDRip]


Статистика раздачи [Обновить пиров]
Размер:  783 MB   |    Зарегистрирован:  1 год 1 месяц   |    Скачан:  0 раз

Полного источника не было: Никогда

 
   
 
 
 

[Цитировать]

Игорь Добролюбов с друзьями
Год выпуска: 2003
Страна: Беларусь
Жанр: Театр и искусство
Продолжительность: 00:52:00
Перевод: Не требуется
Русские субтитры: нет
Режиссер: Дмитрий Михлеев

Описание: Герой картины - Добролюбов Игорь Михайлович - народный артист БССР, профессор, кинорежиссер, самыми известными фильмами которого являются "Иван Макарович", "Улица без конца", "Братушка", "Расписание на послезавтра" и любимая многими поколениями зрителей комедия "Белые росы". Талантливый человек талантлив во всем. Режиссерский дар И.М.Добролюбова трансформируется в этом фильме в яркий, искрометный дар рассказчика.
Доп. информация: Релиз:
Благодарность за предоставленный DVD некто Андрей
За релиз: pmv
За постер: Verba96

качество: DVDRip
формат: AVI
Видео: 720x552 (1.30:1), 25 fps, XviD build 50 ~1998 kbps avg, 0.20 bit/pixel
Аудио: 48 kHz, MPEG Layer 3, 1 ch, ~96.00 kbps avg

Список выпусков/серий

1 серия

MediaInfo

Формат : AVI
Формат/Информация : Audio Video Interleave
Размер файла : 783 Мбайт
Продолжительность : 52 м.
Общий поток : 2104 Кбит/сек
Программа кодирования : VirtualDubMod 1.5.10.3 | www.virtualdub-fr.org || (build 2550/release)
Библиотека кодирования : VirtualDubMod build 2550/release
Видео
Идентификатор : 0
Формат : MPEG-4 Visual
Профиль формата : Advanced Simple@L5
Параметр BVOP формата : 2
Параметр QPel формата : Нет
Параметр GMC формата : Без точки перехода
Параметр матрицы формата : Default (H.263)
Идентификатор кодека : XVID
Идентификатор кодека/Подсказка : XviD
Продолжительность : 52 м.
Битрейт : 1998 Кбит/сек
Ширина : 720 пикселей
Высота : 552 пикселя
Соотношение сторон : 4:3
Частота кадров : 25,000 кадров/сек
Цветовое пространство : YUV
Субдискретизация насыщенности : 4:2:0
Битовая глубина : 8 бит
Тип развёртки : Прогрессивная
Метод сжатия : С потерями
Бит/(Пиксели*Кадры) : 0.201
Размер потока : 743 Мбайт (95%)
Библиотека кодирования : XviD 1.2.1 (UTC 2008-12-04)
Аудио
Идентификатор : 1
Формат : MPEG Audio
Версия формата : Version 1
Профиль формата : Layer 3
Идентификатор кодека : 55
Идентификатор кодека/Подсказка : MP3
Продолжительность : 52 м.
Вид битрейта : Постоянный
Битрейт : 96,0 Кбит/сек
Каналы : 1 канал
Частота : 48,0 КГц
Метод сжатия : С потерями
Размер потока : 35,7 Мбайт (5%)
Выравнивание : Соединение по промежуткам
Продолжительность промежутка : 40 мс. (1,00 видеокадр)
Время предзагрузки промежутка : 504 мс.

Скриншоты

[teatrix.ru].t9156.torrent 
Торрент: Зарегистрирован [ 2015-10-18 20:31 ] · BC20E3A69CADC13C6483F6C6C7C59BCC6122A317

Скачать .torrent

Скачать

16 KB

Статус: проверено
Скачан: 0 раз
Размер: 783 MB
terms.php



Быстрый ответ

Имя:

      
Для отправки сообщений необходимо включить JavaScript
Показать сообщения:    

Текущее время: 09-Дек 01:04

Часовой пояс: UTC + 3


Вы можете начинать темы
Вы можете отвечать на сообщения
Вы не можете редактировать свои сообщения
Вы не можете удалять свои сообщения
Вы не можете голосовать в опросах
Вы не можете прикреплять файлы к сообщениям
Вы можете скачивать файлы