Хранители наследства [Культура 16.08.2013] (Владимир Буробин) [2013 г., Документальный, SATRip]


Статистика раздачи [Обновить пиров]
Размер:  447 MB   |    Зарегистрирован:  1 год 1 месяц   |    Скачан:  0 раз

Полного источника не было: Никогда

 
   
 
 
 

[Цитировать]

Хранители наследства
Дата эфира: 16.08.2013
Страна: Россия
Жанр: Документальный
Продолжительность: 0:44:06
Автор и ведущий: Иван Толстой
Режиссёр: Владимир Буробин
Перевод: Не требуется
Русские субтитры: нет
Описание: У всех великих культур есть собственные выдающиеся рукотворные памятники. России по силам сравниться с портретной галереей Лондона, знаменитым атласом "Птицы Америки" и "Терракотовой армией" воинов Китая. 103 тома "Литературного наследства", непревзойденное филологическое издание -- достояние российской культуры именно этого уровня. Это уникальный памятник подвижничества ума и трудолюбия, образец научного и политического подвига. Тома "Литературного наследства" открывали миру неизвестных Достоевского и Гоголя, Гете и Л.Н. Толстого. Это издание не имеет аналогов в мировой филологической науке.
Об истории и методах работы "Литературного наследства", о его создателях и энтузиастах, о феномене издания рассказывает в программе литературовед и журналист Иван Толстой.

Качество:SATRip
Формат: AVI
Видео: 704x528 (1.33:1), 25 fps, DivX 6.9.2 ~1279 kbps, 0.15 bit/pixel
Аудио: 48 kHz, MPEG Layer 3, 2 ch, ~128 kbps

MediaInfo:

Общее
Полное имя : D:\Torrents\Hraniteli_nasledstva_(Kul'tura)_[rutracker.org].avi
Формат : AVI
Формат/Информация : Audio Video Interleave
Размер файла : 447 Мбайт
Продолжительность : 44 м.
Общий поток : 1417 Кбит/сек
Программа кодирования : VirtualDubMod 1.6.0.0 SURROUND (build 2560/release)
Библиотека кодирования : VirtualDubMod build 2560/release
Видео
Идентификатор : 0
Формат : MPEG-4 Visual
Параметр BVOP формата : 1
Параметр QPel формата : Нет
Параметр GMC формата : Без точки перехода
Параметр матрицы формата : Default (H.263)
Идентификатор кодека : DX50
Идентификатор кодека/Подсказка : DivX 5
Продолжительность : 44 м.
Битрейт : 1280 Кбит/сек
Ширина : 704 пикселя
Высота : 528 пикселей
Соотношение сторон : 5:4
Соотношение сторон в оригинале : 4:3
Частота кадров : 25,000 кадров/сек
Цветовое пространство : YUV
Субдискретизация насыщенности : 4:2:0
Битовая глубина : 8 бит
Тип развёртки : Прогрессивная
Метод сжатия : С потерями
Бит/(Пиксели*Кадры) : 0.138
Размер потока : 404 Мбайт (90%)
Библиотека кодирования : DivX 6.8.5 (UTC 2009-08-20)
Аудио
Идентификатор : 1
Формат : MPEG Audio
Версия формата : Version 1
Профиль формата : Layer 3
Режим : Joint stereo
Расширение режима : MS Stereo
Идентификатор кодека : 55
Идентификатор кодека/Подсказка : MP3
Продолжительность : 44 м.
Вид битрейта : Постоянный
Битрейт : 128 Кбит/сек
Каналы : 2 канала
Частота : 48,0 КГц
Метод сжатия : С потерями
Размер потока : 40,4 Мбайт (9%)
Выравнивание : Разделение по промежуткам
Продолжительность промежутка : 40 мс. (1,00 видеокадр)
Время предзагрузки промежутка : 500 мс.
Библиотека кодирования : LAME3.99r
Настройки программы : -m j -V 4 -q 3 -lowpass 17 -b 128

Скриншоты (превью, увеличение по клику):

На раздаче круглосуточно, ~20 Mb/s. > [Что от меня зависит, сделал. Остальное зависит от Вас, трекера и наших провайдеров.]
[teatrix.ru].t9158.torrent 
Торрент: Зарегистрирован [ 2015-10-18 20:31 ] · 5666F8DA22B2D04C1B4C6CBC406471D67D836C48

Скачать .torrent

Скачать

18 KB

Статус: проверено
Скачан: 0 раз
Размер: 447 MB
terms.php



Быстрый ответ

Имя:

      
Для отправки сообщений необходимо включить JavaScript
Показать сообщения:    

Текущее время: 09-Дек 18:35

Часовой пояс: UTC + 3


Вы можете начинать темы
Вы можете отвечать на сообщения
Вы не можете редактировать свои сообщения
Вы не можете удалять свои сообщения
Вы не можете голосовать в опросах
Вы не можете прикреплять файлы к сообщениям
Вы можете скачивать файлы