Великие эпохи европейского искусства (8 серий) / Die grossen epochen der europaischen kunst (Габи Вебер) [1990, Документальный, искусство, TVRip]


Статистика раздачи [Обновить пиров]
Размер:  8.26 GB   |    Зарегистрирован:  1 год 1 месяц   |    Скачан:  1 раз

Полного источника не было: 14 дней

 
   
 
 
 

[Цитировать]

Великие эпохи европейского искусства (8 серий) / Die grossen epochen der europaischen kunst
Год выпуска: 1990
Страна: Германия
Жанр: Документальный, искусство
Продолжительность: 8 х~ 00:55:00
Перевод: Профессиональный (дублированный)
Русские субтитры: нет
Режиссер: Габи Вебер

Описание: В масштабах всего общества, искусство — особый способ познания и отражения действительности, одна из форм художественной деятельности общественного сознания и часть духовной культуры как человека.
Доп. информация: Релиз:
Автор релиза:ElenaRR
Сэмпл: http://multi-up.com/887444
качество: TVRip
формат: AVI
Видео: XviD 720x544 25.0000 fps 2500 Kbps
Аудио: mp3 44100 1ch 192.00 kbps

Список выпусков/серий

1. Древняя Греция
Античная эпоха оставила особенно глубокий след в истории европейской цивилизации. В годы, когда большая часть населения Европы пребывала в состоянии варварства, в городах Балканского полуострова, Малой Азии, на островах Эгейского моря закладывались основы будущей культуры. Древнегреческие философы и общественные деятели, поэты и драматурги, зодчие, скульпторы, художники положили и начало европейской культуры...
2. Рим
С установлением на территории Средиземноморья Римской империи изменилась соцмальная роль искусства, перед которым теперь встала задача поддержки культа императорской личности, приравненной к божеству. Для искусства Римской империи характерно, прежде всего, создание изображений императора - статуй и портретных работ. Зачастую образцом для подражания служили статуи эпохи Греческой классики...
3. Романский стиль.
Книги Евангелия, статуи и мощи святых, колонны, своды и аркады, монастыри и церкви романского стиля - свидетели средневековой философии и истории. Романский стиль прославлял Сына божьего над миром. Новым явлением были витражи, которые заполняли оконные проемы апсиды и капелл и получили особое развитие в эпоху готики...
4. Готика.
Готика зародилась в середине XII века на севере Франции, в XIII веке она распространилась на территорию современных Германии, Австрии, Чехии, Испании, Англии. В Италию готика проникла позднее, с большим трудом и сильной трансформацией, приведшей к появлению "итальянской готики". В конце XIV века Европу охватила так называемая интернациональная готика. В страны Восточной Европы готика проникла позднее и продержалась там чуть дольше — вплоть до XVI века...
5. Ренессанс.
Возрождение, или Ренессанс — эпоха в истории культуры Европы, пришедшая на смену культуре Средних веков и предшествующая культуре нового времени. Примерные хронологические рамки эпохи — начало XIV— последняя четверть XVI веков...
6. Барокко.
Стиль барокко появился в XVI—XVII веках в итальянских городах: Риме, Мантуе, Венеции, Флоренции. Эпоху барокко принято считать началом триумфального шествия "западной цивилизации". Барокко противостояло классицизму и рационализму. Архитектура барокко - не только симбиоз строительного и изобразительного искусства, но и стройная система мышления...
7. Рококо.
Рококо — стиль в искусстве, возникший во Франции в первой половине XVIII века как развитие стиля барокко. Характерными чертами рококо являются изысканность, большая декоративная нагруженность интерьеров и композиций, грациозный орнаментальный ритм, большое внимание к мифологии, эротическим ситуациям, личному комфорту. Наивысшее развитие в архитектуре стиль получил в Баварии...
8. ХIХ век.
Германия одна из первых стран, в изобразительном искусстве которой сложился романтизм. Борьба за духовное раскрепощение, за освобождение личности, раскрытие внутреннего мира и облика художника лежат в основе раннего немецкого романтизма, противопоставившего яркую эмоциональность и острый интерес к сугубо личному, индивидуальному отвлеченно-рационалистическим идеалам классицизма...

MediaInfo

Формат : AVI
Формат/Информация : Audio Video Interleave
Профиль формата : OpenDML
Размер файла : 1,02 Гбайт
Продолжительность : 53 м.
Общий поток : 2709 Кбит/сек
Программа кодирования : Lavf52.39.0
Видео
Идентификатор : 0
Формат : xvid
Идентификатор кодека : xvid
Продолжительность : 53 м.
Битрейт : 2500 Кбит/сек
Ширина : 720 пикселей
Высота : 544 пикселя
Соотношение сторон : 4:3
Частота кадров : 25,000 кадров/сек
Бит/(Пиксели*Кадры) : 0.255
Размер потока : 961 Мбайт (92%)
Аудио
Идентификатор : 1
Формат : MPEG Audio
Версия формата : Version 1
Профиль формата : Layer 3
Идентификатор кодека : 55
Идентификатор кодека/Подсказка : MP3
Продолжительность : 53 м.
Вид битрейта : Постоянный
Битрейт : 192 Кбит/сек
Каналы : 1 канал
Частота : 44,1 КГц
Метод сжатия : С потерями
Размер потока : 73,8 Мбайт (7%)
Выравнивание : Соединение по промежуткам
Продолжительность промежутка : 26 мс. (0,65 видеокадр)
Время предзагрузки промежутка : 52 мс.
Библиотека кодирования : LAME3.98.2UUUUUU0\Ђ‡

Скриншоты

1. Древняя Греция

2. Рим

3. Романский стиль.

4. Готика.

5. Ренессанс.

6. Барокко.

7. Рококо.

8. ХIХ век.
[teatrix.ru].t9159.torrent 
Торрент: Зарегистрирован [ 2015-10-18 20:31 ] · 87E57DA744F68F41FE3B7E003FA2ABB6169B7FAE

Скачать .torrent

Скачать

22 KB

Статус: проверено
Скачан: 1 раз
Размер: 8.26 GB
terms.php



Быстрый ответ

Имя:

      
Для отправки сообщений необходимо включить JavaScript
Показать сообщения:    

Текущее время: 03-Дек 14:39

Часовой пояс: UTC + 3


Вы можете начинать темы
Вы можете отвечать на сообщения
Вы не можете редактировать свои сообщения
Вы не можете удалять свои сообщения
Вы не можете голосовать в опросах
Вы не можете прикреплять файлы к сообщениям
Вы можете скачивать файлы