Ван Гог: портрет, написанный словами / Van Gogh: Painted with Words (Эндрю Хаттон / Andrew Hutton) [2010, документально-игровой, TVRip] VO ИндивИдуалист


Статистика раздачи [Обновить пиров]
Размер:  663 MB   |    Зарегистрирован:  1 год 1 месяц   |    Скачан:  1 раз

Полного источника не было: 7 месяцев 8 дней

 
   
 
 
 

[Цитировать]

Ван Гог: портрет, написанный словами / Van Gogh: Painted with Words
Год выпуска: 2010
Страна: Великобритания
Жанр: документально-игровой
Продолжительность: 01:19:56
Перевод: Любительский (одноголосый закадровый)
Русские субтитры: Есть (нотабеноид)-В ролях: Бенедикт Камбербэтч, Джеми Паркер, Айдан МакАрдл
Режиссер: Эндрю Хаттон / Andrew Hutton
Описание: Документально-игровой фильм о жизни и творчестве художника. В основу его сценария легла переписка художника с братом, в которой ван Гог раскрывается не только как вдумчивый, требовательный к себе художник, но и как противоречивая личность, мужественный человек, часто грубый и резкий, но в тоже время чуткий и ранимый.
Доп. информация: Находясь под впечатлением после просмотра с субтитрами, решил озвучить этот интересный документальный фильм, переведённый коллективом сайта нотабеноид.-Качество: TVRip
Формат: AVI (совместим с бытовыми DVD-плеерами)
Видео: XviD 656x368 25fps ~ 895 kbps
Аудио#1: 44.1 kHz, MP3 128 kbps [Одноголосый закадровый: ИндивИдуалист]
Аудио#2: 48 kHz, MP3 128 kbps [Оригинал]-Отрывок | КиноПоиск
смотреть Отрывок фильмаПриятного просмотра!

Скриншоты

GeneralFormat : AVIFormat/Info : Audio Video InterleaveFile size : 662 MiBDuration : 1h 19mnOverall bit rate mode : VariableOverall bit rate : 1 159 KbpsWriting application : VirtualDubModRus 1.5.10.2 (build 2542/release)Writing library : VirtualDubMod build 2542/release
VideoID : 0Format : MPEG-4 VisualFormat profile : Advanced Simple@L5Format settings, BVOP : 1Format settings, QPel : NoFormat settings, GMC : No warppointsFormat settings, Matrix : CustomCodec ID : XVIDCodec ID/Hint : XviDDuration : 1h 19mnBit rate : 890 KbpsWidth : 656 pixelsHeight : 368 pixelsDisplay aspect ratio : 16:9Frame rate : 25.000 fpsColor space : YUVChroma subsampling : 4:2:0Bit depth : 8 bitsScan type : ProgressiveCompression mode : LossyBits/(Pixel*Frame) : 0.148Stream size : 509 MiB (77%)Writing library : XviD 1.2.1 (UTC 2008-12-04)
Audio #1ID : 1Format : MPEG AudioFormat version : Version 1Format profile : Layer 3Mode : Joint stereoMode extension : MS StereoCodec ID : 55Codec ID/Hint : MP3Duration : 1h 19mnBit rate mode : ConstantBit rate : 128 KbpsChannel(s) : 2 channelsSampling rate : 44.1 KHzCompression mode : LossyStream size : 72.8 MiB (11%)Alignment : Aligned on interleavesInterleave, duration : 40 ms (1.00 video frame)Interleave, preload duration : 522 ms
Audio #2ID : 2Format : MPEG AudioFormat version : Version 1Format profile : Layer 3Mode : Joint stereoMode extension : MS StereoCodec ID : 55Codec ID/Hint : MP3Duration : 1h 19mnSource duration : 1h 19mnBit rate mode : VariableBit rate : 128 KbpsChannel(s) : 2 channelsSampling rate : 48.0 KHzCompression mode : LossyStream size : 72.2 MiB (11%)Alignment : Split accross interleavesInterleave, duration : 40 ms (1.00 video frame)Interleave, preload duration : 500 ms
[teatrix.ru].t9161.torrent 
Торрент: Зарегистрирован [ 2015-10-18 20:31 ] · 751582A5B1331932E01A6276F41E219F431F9321

Скачать .torrent

Скачать

14 KB

Статус: проверено
Скачан: 1 раз
Размер: 663 MB
terms.php



Быстрый ответ

Имя:

      
Для отправки сообщений необходимо включить JavaScript
Показать сообщения:    

Текущее время: 08-Дек 21:11

Часовой пояс: UTC + 3


Вы можете начинать темы
Вы можете отвечать на сообщения
Вы не можете редактировать свои сообщения
Вы не можете удалять свои сообщения
Вы не можете голосовать в опросах
Вы не можете прикреплять файлы к сообщениям
Вы можете скачивать файлы