ПЕН-клуб. Писатели подполья: Белла Ахмадулина, Андрей Битов, Олег Волков, Булат Окуджава, Фазиль Искандер, Юрий Давыдов, Аркадий Ваксберг, Лев Тимофеев (Евгений Ануфриев) [1993, документально – публицистический, DVB]


Статистика раздачи [Обновить пиров]
Размер:  2.04 GB   |    Зарегистрирован:  1 год 1 месяц   |    Скачан:  0 раз

Полного источника не было: Никогда

 
   
 
 
 

[Цитировать]

ПЕН-клуб
Писатели подполья- Год выпуска: 1993
Страна: Россия
Жанр: документально – публицистический
Продолжительность: 00:57:12
Перевод: Не требуется
Русские субтитры: нет
Режиссер: Евгений Ануфриев
Принимают участие: Белла Ахмадулина, Андрей Битов, Наталья Иванова, Юрий Давыдов, Аркадий Ваксберг, Олег Волков, Юрий Мамлеев, Булат Окуджава, Жан Блок, Лев Тимофеев, Фазиль Искандер, Юрий Рост
Описание: ПЕН-клуб — международная неправительственная организация, объединяющая профессиональных писателей и журналистов, работающих в различных литературных жанрах. Русский ПЕН-центр был образован в 1989 году. Президентом является Андрей Битов. Вице-президентами были при жизни: Андрей Вознесенский и Белла Ахмадулина.
Вам предлагается небольшой экскурс в историю создания ПЕН-клуба и возможность присутствовать на первом публичном собрании Русского ПЕН-Центра. Тема сегодняшнего разговора: "Художник и власть. Писатели подполья".
Доп. информация: Собственная запись со спутника (канал "Ностальгия").
Сэмпл: http://multi-up.com/846425
качество: DVB
формат: MPEG-PS
видеокодек: MPEG2
аудиокодек: MP2
Видео: MPEG Video 2, 720x576@768x576 (4:3), 25 fps, ~4800 kbps avg, 0.463 bit/pixel
Аудио: 48 kHz, MPEG Audio 2, 2 ch, ~192.00 kbps avg

MediaInfo

Полное имя : H:\My Torrents\[apreder]PEN_Club(1993)DVB.mpgФормат : MPEG-PSРазмер файла : 2,04 ГбайтПродолжительность : 57 м.Режим общего битрейта : ПеременныйОбщий поток : 5093 Кбит/сек
ВидеоИдентификатор : 224 (0xE0)Формат : MPEG VideoВерсия формата : Version 2Профиль формата : Main@MainПараметр BVOP формата : ДаПараметр матрицы формата : ВыборочнаяПараметр GOP формата : M=3, N=36Продолжительность : 57 м.Вид битрейта : ПеременныйБитрейт : 4800 Кбит/секШирина : 720 пикселейВысота : 576 пикселейСоотношение сторон : 4:3Частота кадров : 25,000 кадров/секСтандарт вещания : PALЦветовое пространство : YUVСубдискретизация насыщенности : 4:2:0Битовая глубина : 8 битТип развёртки : ЧересстрочнаяПорядок развёртки : Верхнее поле первоеМетод сжатия : С потерямиБит/(Пиксели*Кадры) : 0.463Размер потока : 1,92 Гбайт (94%)
АудиоИдентификатор : 192 (0xC0)Формат : MPEG AudioВерсия формата : Version 1Профиль формата : Layer 2Продолжительность : 57 м.Вид битрейта : ПостоянныйБитрейт : 192 Кбит/секКаналы : 2 каналаЧастота : 48,0 КГцМетод сжатия : С потерямиРазмер потока : 78,6 Мбайт (4%)

Скриншоты

Скриншоты анаморфированные

-664/646√
[teatrix.ru].t9165.torrent 
Торрент: Зарегистрирован [ 2015-10-18 20:31 ] · 083F3C76445C43EA0FECE5591B999282D85596BC

Скачать .torrent

Скачать

11 KB

Статус: проверено
Скачан: 0 раз
Размер: 2.04 GB
terms.php



Быстрый ответ

Имя:

      
Для отправки сообщений необходимо включить JavaScript
Показать сообщения:    

Текущее время: 06-Дек 11:08

Часовой пояс: UTC + 3


Вы можете начинать темы
Вы можете отвечать на сообщения
Вы не можете редактировать свои сообщения
Вы не можете удалять свои сообщения
Вы не можете голосовать в опросах
Вы не можете прикреплять файлы к сообщениям
Вы можете скачивать файлы