После "Моей жизни в искусстве". Все части. (Анатолий Смелянский) [2013, Документальный фильм, TVRip]


Статистика раздачи [Обновить пиров]
Размер:  2.29 GB   |    Зарегистрирован:  1 год 1 месяц   |    Скачан:  0 раз

Полного источника не было: Никогда

 
   
 
 
 

[Цитировать]

После "Моей жизни в искусстве". К 150-летию со дня рождения Станиславского. Все части
Год выпуска: 2013
Страна: Россия
Жанр: Документальный фильм
Перевод: Авторский (одноголосый закадровый)
Русские субтитры: нет
качество: TVRip
формат: AVI
видеокодек: XviD
аудиокодек: MP3
Режиссер: Алексей Шемятовский. Автор программы Анатолий Смелянский.
Доп. информация: Константин Алексеев родился в Москве, в многодетной (всего у него было девять братьев и сестёр) купеческой семье, состоявшей в родстве с С. И. Мамонтовым и братьями Третьяковыми. В 1886 году Константина Алексеева избрали членом дирекции и казначеем Московского отделения Русского музыкального общества и состоящей при нём консерватории. Его сотоварищами по дирекции консерватории были П. И. Чайковский, С. И. Танеев, С. М. Третьяков. Вместе с певцом и педагогом Ф. П. Комиссаржевским и художником Ф. Л. Соллогубом Алексеев разрабатывает проект Московского Общества Искусства и Литературы (МОИиЛ), вложив в него личные финансовые средства. В это время, чтобы скрыть свою настоящую фамилию, взял для сцены фамилию Станиславский.

1-я часть

Продолжительность: 00:26:00
Описание: Декрет об объединении театрального дела и национализация Художественного театра, ответ большевистскому перевороту и гражданской войне. Жизнь и быт Станиславского в эти годы. Идея создания театра-пантеона. Попытка вернуть в Советскую Россию "качаловскую группу", секретный протокол с властью о гастролях в Европе и Америке. Американские гастроли, крушение самой идеи Художественного театра. Письма из-за океана. Возвращение в СССР в августе 1924 года.
Видео: Xvid, 680x360, 16:9, 2 299 Kbps, 25fps
Аудио: mp3, 128 Kbps, 32.0 KHz, 2ch

MediaInfo

General
Complete name : После моей жизни в искусстве 01.avi
Format : AVI
Format/Info : Audio Video Interleave
File size : 463 MiB
Duration : 26mn 36s
Overall bit rate : 2 434 Kbps
Writing application : TMPGEnc Video Mastering Works 5 Version. 5.0.6.38
Writing library : TMPGEnc Video Mastering Works 5 Version. 5.0.6.38
Video
ID : 0
Format : MPEG-4 Visual
Format profile : Advanced Simple@L5
Format settings, BVOP : 2
Format settings, QPel : No
Format settings, GMC : No warppoints
Format settings, Matrix : Default (H.263)
Muxing mode : Packed bitstream
Codec ID : XVID
Codec ID/Hint : XviD
Duration : 26mn 36s
Bit rate : 2 299 Kbps
Width : 680 pixels
Height : 360 pixels
Display aspect ratio : 1.889
Frame rate : 25.000 fps
Color space : YUV
Chroma subsampling : 4:2:0
Bit depth : 8 bits
Scan type : Progressive
Compression mode : Lossy
Bits/(Pixel*Frame) : 0.376
Stream size : 437 MiB (94%)
Writing library : XviD 64
Audio
ID : 1
Format : MPEG Audio
Format version : Version 1
Format profile : Layer 3
Mode : Joint stereo
Mode extension : MS Stereo
Codec ID : 55
Codec ID/Hint : MP3
Duration : 26mn 36s
Bit rate mode : Constant
Bit rate : 128 Kbps
Channel(s) : 2 channels
Sampling rate : 32.0 KHz
Compression mode : Lossy
Stream size : 24.4 MiB (5%)
Alignment : Aligned on interleaves
Interleave, duration : 250 ms (6.25 video frames)
Interleave, preload duration : 180 ms

Скриншоты

c[○┬●]כ

2-я часть

Продолжительность: 00:26:00
Описание 2й части: В сентябре 1922 года Станиславский отправляется вместе с Художественным театром в Европу и Америку. Разрешение на гастроли было получено с огромным трудом и на секретных условиях. Эта поездка, растянувшаяся на два года, стала переломным моментом в судьбе Художественного театра и в жизни Станиславского. В сущности, именно там, за океаном, была подготовлена.
Видео: Xvid, 680x360, 16:9, 2 434 Kbps, 25fps
Аудио: mp3, 128 Kbps, 32.0 KHz, 2ch

MediaInfo

General
Complete name : После моей жизни в искусстве 02.avi
Format : AVI
Format/Info : Audio Video Interleave
File size : 469 MiB
Duration : 26mn 57s
Overall bit rate : 2 434 Kbps
Writing application : TMPGEnc Video Mastering Works 5 Version. 5.0.6.38
Writing library : TMPGEnc Video Mastering Works 5 Version. 5.0.6.38
Video
ID : 0
Format : MPEG-4 Visual
Format profile : Advanced Simple@L5
Format settings, BVOP : 2
Format settings, QPel : No
Format settings, GMC : No warppoints
Format settings, Matrix : Default (H.263)
Muxing mode : Packed bitstream
Codec ID : XVID
Codec ID/Hint : XviD
Duration : 26mn 57s
Bit rate : 2 298 Kbps
Width : 680 pixels
Height : 360 pixels
Display aspect ratio : 1.889
Frame rate : 25.000 fps
Color space : YUV
Chroma subsampling : 4:2:0
Bit depth : 8 bits
Scan type : Progressive
Compression mode : Lossy
Bits/(Pixel*Frame) : 0.375
Stream size : 443 MiB (94%)
Writing library : XviD 64
Audio
ID : 1
Format : MPEG Audio
Format version : Version 1
Format profile : Layer 3
Mode : Joint stereo
Mode extension : MS Stereo
Codec ID : 55
Codec ID/Hint : MP3
Duration : 26mn 57s
Bit rate mode : Constant
Bit rate : 128 Kbps
Channel(s) : 2 channels
Sampling rate : 32.0 KHz
Compression mode : Lossy
Stream size : 24.7 MiB (5%)
Alignment : Aligned on interleaves
Interleave, duration : 250 ms (6.25 video frames)
Interleave, preload duration : 180 ms

Скриншоты

c[○┬●]כ

3-я часть

Описание 3й части: После разрыва с Владимиром Немировичем-Данченко Станиславский впервые единолично руководит МХАТом. Последняя вспышка творческого гения - спектакли "Горячее сердце" и "Дни Турбиных". Празднование 10-й годовщины революции ознаменовано постановкой "Бронепоезд 14-69". Молодое руководство советского МХАТа рвется в бой. Михаил Чехов покидает СССР. Октябрь 1928 - 30-летие МХАТа. Станиславский играет Вершинина: инфаркт на сцене. Режиссер покидает Художественный театр накануне "года великого перелома"...
Продолжительность: 00:27:00
качество: TVRip
формат: AVI
видеокодек: XviD
аудиокодек: MP3
Видео: Xvid, 680x360, 16:9, 2 530 Kbps, 25fps
Аудио: mp3, 128 Kbps, 32.0 KHz, 2ch

MediaInfo

General
Complete name : После моей жизни в искусстве 03.avi
Format : AVI
Format/Info : Audio Video Interleave
File size : 489 MiB
Duration : 27mn 0s
Overall bit rate : 2 530 Kbps
Writing application : TMPGEnc Video Mastering Works 5 Version. 5.0.6.38
Writing library : TMPGEnc Video Mastering Works 5 Version. 5.0.6.38
Video
ID : 0
Format : MPEG-4 Visual
Format profile : Advanced Simple@L5
Format settings, BVOP : 2
Format settings, QPel : No
Format settings, GMC : No warppoints
Format settings, Matrix : Default (H.263)
Muxing mode : Packed bitstream
Codec ID : XVID
Codec ID/Hint : XviD
Duration : 27mn 0s
Bit rate : 2 394 Kbps
Width : 680 pixels
Height : 360 pixels
Display aspect ratio : 1.889
Frame rate : 25.000 fps
Color space : YUV
Chroma subsampling : 4:2:0
Bit depth : 8 bits
Scan type : Progressive
Compression mode : Lossy
Bits/(Pixel*Frame) : 0.391
Stream size : 463 MiB (95%)
Writing library : XviD 64
Audio
ID : 1
Format : MPEG Audio
Format version : Version 1
Format profile : Layer 3
Mode : Joint stereo
Mode extension : MS Stereo
Codec ID : 55
Codec ID/Hint : MP3
Duration : 27mn 0s
Bit rate mode : Constant
Bit rate : 128 Kbps
Channel(s) : 2 channels
Sampling rate : 32.0 KHz
Compression mode : Lossy
Stream size : 24.7 MiB (5%)
Alignment : Aligned on interleaves
Interleave, duration : 250 ms (6.25 video frames)
Interleave, preload duration : 180 ms

Скриншоты

c[○┬●]כ

4-я часть

Описание 4й части: Станиславский известен в современном театральном мире как создатель Художественного театра, но не менее важна сотворенная им система воспитания актера. Процесс создания "главной книги" Станиславского "Моя жизнь в искусстве" занял много лет и завершился в 1930-е годы. Тут сошлось все: одиночество Станиславского (пять лет не переступал порога созданного им театра), канонизация артиста, уничтожение всех его оппонентов и многое другое. В чем смысл странной фразы, в которой сам Станиславский формулирует итог своего пожизненного труда: "Актера-общественника в свою книгу я не пустил"?
Продолжительность: 00:26:56
Видео: Xvid, 680x364, 16:9, 2 434 Kbps, 25fps
Аудио: mp3, 128 Kbps, 32.0 KHz, 2ch

MediaInfo

General
General
Complete name : После моей жизни в искусстве 04.avi
Format : AVI
Format/Info : Audio Video Interleave
File size : 469 MiB
Duration : 26mn 56s
Overall bit rate : 2 434 Kbps
Writing application : TMPGEnc Video Mastering Works 5 Version. 5.0.6.38
Writing library : TMPGEnc Video Mastering Works 5 Version. 5.0.6.38
Video
ID : 0
Format : MPEG-4 Visual
Format profile : Advanced Simple@L5
Format settings, BVOP : 2
Format settings, QPel : No
Format settings, GMC : No warppoints
Format settings, Matrix : Default (H.263)
Muxing mode : Packed bitstream
Codec ID : XVID
Codec ID/Hint : XviD
Duration : 26mn 56s
Bit rate : 2 298 Kbps
Width : 680 pixels
Height : 364 pixels
Display aspect ratio : 1.868
Frame rate : 25.000 fps
Color space : YUV
Chroma subsampling : 4:2:0
Bit depth : 8 bits
Scan type : Progressive
Compression mode : Lossy
Bits/(Pixel*Frame) : 0.371
Stream size : 443 MiB (94%)
Writing library : XviD 64
Audio
ID : 1
Format : MPEG Audio
Format version : Version 1
Format profile : Layer 3
Mode : Joint stereo
Mode extension : MS Stereo
Codec ID : 55
Codec ID/Hint : MP3
Duration : 26mn 56s
Bit rate mode : Constant
Bit rate : 128 Kbps
Channel(s) : 2 channels
Sampling rate : 32.0 KHz
Compression mode : Lossy
Stream size : 24.7 MiB (5%)
Alignment : Aligned on interleaves
Interleave, duration : 250 ms (6.25 video frames)
Interleave, preload duration : 180 ms

Скриншоты

c[○┬●]כ

5-я часть

Описание 5й части:Главное изобретение Станиславского - Художественный театр. Что приключилось с этой коренной идеей ХХ века? Как оборвались отношения Станиславского с Немировичем-Данченко? Как покинул Художественный театр Михаил Булгаков? Приглашение разгромленного Мейерхольда на работу в оперную студию Станиславского. Последние творческие идеи Станиславского. Его смерть и похороны. В чем должна заключаться сейчас наша верность человеку, который прославил русский театр в мире?
Видео: Xvid, 680x360, 16:9, 2432Kbps, 25fps
Аудио: mp3, 128 Kbps, 32.0 KHz, 2ch

MediaInfo для 5й части

General
Complete name : После моей жизни в искусстве 05.avi
Format : AVI
Format/Info : Audio Video Interleave
File size : 457 MiB
Duration : 26mn 16s
Overall bit rate : 2 432 Kbps
Writing application : TMPGEnc Video Mastering Works 5 Version. 5.0.6.38
Writing library : TMPGEnc Video Mastering Works 5 Version. 5.0.6.38
Video
ID : 0
Format : MPEG-4 Visual
Format profile : Advanced Simple@L5
Format settings, BVOP : 2
Format settings, QPel : No
Format settings, GMC : No warppoints
Format settings, Matrix : Default (H.263)
Muxing mode : Packed bitstream
Codec ID : XVID
Codec ID/Hint : XviD
Duration : 26mn 16s
Bit rate : 2 296 Kbps
Width : 680 pixels
Height : 364 pixels
Display aspect ratio : 1.868
Frame rate : 25.000 fps
Color space : YUV
Chroma subsampling : 4:2:0
Bit depth : 8 bits
Scan type : Progressive
Compression mode : Lossy
Bits/(Pixel*Frame) : 0.371
Stream size : 432 MiB (94%)
Writing library : XviD 64
Audio
ID : 1
Format : MPEG Audio
Format version : Version 1
Format profile : Layer 3
Mode : Joint stereo
Mode extension : MS Stereo
Codec ID : 55
Codec ID/Hint : MP3
Duration : 26mn 16s
Bit rate mode : Constant
Bit rate : 128 Kbps
Channel(s) : 2 channels
Sampling rate : 32.0 KHz
Compression mode : Lossy
Stream size : 24.1 MiB (5%)
Alignment : Aligned on interleaves
Interleave, duration : 250 ms (6.25 video frames)
Interleave, preload duration : 180 ms

Скриншоты 5й части

c[○┬●]כ
[url=http://rutracker.org/forum/tracker.php?rid=2592157]∙∙∙∙∙·▫▫ᵒᴼᵒ▫ₒₒ▫ᵒᴼᵒ▫ₒₒ▫ᵒᴼᵒ☼)===>M0u ToppeHTbI
[teatrix.ru].t9167.torrent 
Торрент: Зарегистрирован [ 2015-10-18 20:31 ] · C6234E94D3A144AABBBDA6FFE08231662A4285E5

Скачать .torrent

Скачать

13 KB

Статус: проверено
Скачан: 0 раз
Размер: 2.29 GB
terms.php



Быстрый ответ

Имя:

      
Для отправки сообщений необходимо включить JavaScript
Показать сообщения:    

Текущее время: 09-Дек 08:51

Часовой пояс: UTC + 3


Вы можете начинать темы
Вы можете отвечать на сообщения
Вы не можете редактировать свои сообщения
Вы не можете удалять свои сообщения
Вы не можете голосовать в опросах
Вы не можете прикреплять файлы к сообщениям
Вы можете скачивать файлы